HYBRID_BEING

[Godless-Subs] Amaama to Inazuma - 01 (720p 10bit x264 AAC) [4AC316BB].mkv

Jul 15th, 2016
146
Never
Not a member of Pastebin yet? Sign Up, it unlocks many cool features!
  1. General
  2. Unique ID : 247899572753362386413690660047007235810 (0xBA7FB895DBA025EEA8283AF715FFBEE2)
  3. Complete name : [Godless-Subs] Amaama to Inazuma - 01 (720p 10bit x264 AAC) [4AC316BB].mkv
  4. Format : Matroska
  5. Format version : Version 4 / Version 2
  6. File size : 349 MiB
  7. Duration : 23mn 36s
  8. Overall bit rate : 2 068 Kbps
  9. Movie name : [Godless-Subs] Amaama to Inazuma - 01
  10. Encoded date : UTC 2016-07-10 09:36:05
  11. Writing application : mkvmerge v8.4.0 ('A better way to fly') 64bit
  12. Writing library : libebml v1.3.1 + libmatroska v1.4.2
  13. Attachments : 01_tama.TTF / 4STAFF.TTF / A-OTF-CAPIENSTD-MEDIUM.OTF / Barthowheel Regular.ttf / Brush Strokes.ttf / GandhiSans-Bold.otf / GandhiSans-BoldItalic.otf / KGBlankSpace-Solid.ttf
  14.  
  15. Video
  16. ID : 1
  17. Format : AVC
  18. Format/Info : Advanced Video Codec
  19. Format profile : High 10@L5
  20. Format settings, CABAC : Yes
  21. Format settings, ReFrames : 16 frames
  22. Codec ID : V_MPEG4/ISO/AVC
  23. Duration : 23mn 36s
  24. Bit rate : 1 808 Kbps
  25. Width : 1 280 pixels
  26. Height : 720 pixels
  27. Display aspect ratio : 16:9
  28. Frame rate mode : Constant
  29. Frame rate : 23.976 (24000/1001) fps
  30. Color space : YUV
  31. Chroma subsampling : 4:2:0
  32. Bit depth : 10 bits
  33. Scan type : Progressive
  34. Bits/(Pixel*Frame) : 0.082
  35. Stream size : 305 MiB (87%)
  36. Writing library : x264 core 146 r2538 121396c
  37. Encoding settings : cabac=1 / ref=16 / deblock=1:1:0 / analyse=0x3:0x133 / me=umh / subme=10 / psy=1 / psy_rd=1.00:0.00 / mixed_ref=1 / me_range=32 / chroma_me=1 / trellis=2 / 8x8dct=1 / cqm=0 / deadzone=21,11 / fast_pskip=1 / chroma_qp_offset=-2 / threads=12 / lookahead_threads=3 / sliced_threads=0 / nr=0 / decimate=1 / interlaced=0 / bluray_compat=0 / constrained_intra=0 / bframes=16 / b_pyramid=2 / b_adapt=2 / b_bias=0 / direct=3 / weightb=1 / open_gop=0 / weightp=2 / keyint=240 / keyint_min=23 / scenecut=40 / intra_refresh=0 / rc_lookahead=60 / rc=crf / mbtree=1 / crf=15.5 / qcomp=0.70 / qpmin=10 / qpmax=81 / qpstep=4 / ip_ratio=1.40 / aq=1:1.00
  38. Default : Yes
  39. Forced : No
  40.  
  41. Audio
  42. ID : 2
  43. Format : AAC
  44. Format/Info : Advanced Audio Codec
  45. Format profile : LC
  46. Codec ID : A_AAC
  47. Duration : 23mn 36s
  48. Bit rate : 254 Kbps
  49. Channel(s) : 2 channels
  50. Channel positions : Front: L R
  51. Sampling rate : 48.0 KHz
  52. Frame rate : 46.875 fps (1024 spf)
  53. Compression mode : Lossy
  54. Stream size : 42.8 MiB (12%)
  55. Language : Japanese
  56. Default : Yes
  57. Forced : No
  58.  
  59. Text
  60. ID : 3
  61. Format : ASS
  62. Codec ID : S_TEXT/ASS
  63. Codec ID/Info : Advanced Sub Station Alpha
  64. Duration : 23mn 8s
  65. Bit rate : 352 bps
  66. Count of elements : 496
  67. Compression mode : Lossless
  68. Stream size : 59.7 KiB (0%)
  69. Title : Godless-Subs
  70. Language : English
  71. Default : Yes
  72. Forced : No
  73.  
  74. Menu
  75. 00:00:00.000 : en:Intro
  76. 00:00:54.054 : en:OP
  77. 00:02:23.977 : en:Part A
  78. 00:10:20.995 : en:Part B
  79. 00:21:59.944 : en:ED
RAW Paste Data