SHARE
TWEET

No Country for Old Men BluRay 720p

dirtyharrys Apr 25th, 2019 69 Never
Not a member of Pastebin yet? Sign Up, it unlocks many cool features!
  1. General
  2. Unique ID                   : 224834841052240594043944936374154412368 (0xA9259D83CD96FCE8F642823231DDC150)
  3. Complete name               : E:\QlJSTm9Db3VudHJ5Zm9yT2xkTWVu.mkv
  4. Format                      : Matroska
  5. Format version              : Version 4
  6. File size                   : 1.94 GiB
  7. Duration                    : 2 h 2 min
  8. Overall bit rate            : 2 264 kb/s
  9. Movie name                  : No Country for Old Men BR-RIP / No Country for Old Men BR-RIP
  10. Encoded date                : UTC 2019-04-25 07:14:23
  11. Writing application         : mkvmerge v30.1.0 ('Forever And More') 32-bit
  12. Writing library             : libebml v1.3.6 + libmatroska v1.4.9
  13. Copyright                   : Movies HDs 2019
  14. ARTIST                      : HarshLearner
  15.  
  16. Video
  17. ID                          : 1
  18. Format                      : AVC
  19. Format/Info                 : Advanced Video Codec
  20. Format profile              : High@L4.1
  21. Format settings             : CABAC / 4 Ref Frames
  22. Format settings, CABAC      : Yes
  23. Format settings, ReFrames   : 4 frames
  24. Codec ID                    : V_MPEG4/ISO/AVC
  25. Duration                    : 2 h 2 min
  26. Bit rate                    : 1 500 kb/s
  27. Width                       : 1 280 pixels
  28. Height                      : 544 pixels
  29. Display aspect ratio        : 2.35:1
  30. Frame rate mode             : Constant
  31. Frame rate                  : 23.976 (23976/1000) FPS
  32. Color space                 : YUV
  33. Chroma subsampling          : 4:2:0
  34. Bit depth                   : 8 bits
  35. Scan type                   : Progressive
  36. Bits/(Pixel*Frame)          : 0.090
  37. Stream size                 : 1.28 GiB (66%)
  38. Title                       : No Country for Old Men
  39. Writing library             : x264 core 152 r2851M ba24899
  40. Default                     : Yes
  41. Forced                      : No
  42.  
  43. Audio #1
  44. ID                          : 2
  45. Format                      : AC-3
  46. Format/Info                 : Audio Coding 3
  47. Commercial name             : Dolby Digital
  48. Codec ID                    : A_AC3
  49. Duration                    : 2 h 2 min
  50. Bit rate mode               : Constant
  51. Bit rate                    : 384 kb/s
  52. Channel(s)                  : 6 channels
  53. Channel layout              : L R C LFE Ls Rs
  54. Sampling rate               : 48.0 kHz
  55. Frame rate                  : 31.250 FPS (1536 SPF)
  56. Bit depth                   : 16 bits
  57. Compression mode            : Lossy
  58. Stream size                 : 336 MiB (17%)
  59. Language                    : English
  60. Service kind                : Complete Main
  61. Default                     : No
  62. Forced                      : No
  63.  
  64. Audio #2
  65. ID                          : 3
  66. Format                      : AC-3
  67. Format/Info                 : Audio Coding 3
  68. Commercial name             : Dolby Digital
  69. Codec ID                    : A_AC3
  70. Duration                    : 2 h 2 min
  71. Bit rate mode               : Constant
  72. Bit rate                    : 384 kb/s
  73. Channel(s)                  : 6 channels
  74. Channel layout              : L R C LFE Ls Rs
  75. Sampling rate               : 48.0 kHz
  76. Frame rate                  : 31.250 FPS (1536 SPF)
  77. Bit depth                   : 16 bits
  78. Compression mode            : Lossy
  79. Stream size                 : 337 MiB (17%)
  80. Language                    : Spanish
  81. Service kind                : Complete Main
  82. Default                     : Yes
  83. Forced                      : Yes
  84.  
  85. Text #1
  86. ID                          : 4
  87. Format                      : UTF-8
  88. Codec ID                    : S_TEXT/UTF8
  89. Codec ID/Info               : UTF-8 Plain Text
  90. Duration                    : 1 h 55 min
  91. Bit rate                    : 42 b/s
  92. Count of elements           : 906
  93. Stream size                 : 35.8 KiB (0%)
  94. Language                    : English
  95. Default                     : No
  96. Forced                      : No
  97.  
  98. Text #2
  99. ID                          : 5
  100. Format                      : UTF-8
  101. Codec ID                    : S_TEXT/UTF8
  102. Codec ID/Info               : UTF-8 Plain Text
  103. Duration                    : 1 h 55 min
  104. Bit rate                    : 45 b/s
  105. Count of elements           : 1029
  106. Stream size                 : 38.4 KiB (0%)
  107. Title                       : SDH
  108. Language                    : English
  109. Default                     : No
  110. Forced                      : No
  111.  
  112. Text #3
  113. ID                          : 6
  114. Format                      : UTF-8
  115. Codec ID                    : S_TEXT/UTF8
  116. Codec ID/Info               : UTF-8 Plain Text
  117. Duration                    : 1 h 55 min
  118. Bit rate                    : 40 b/s
  119. Count of elements           : 951
  120. Stream size                 : 34.3 KiB (0%)
  121. Language                    : Spanish
  122. Default                     : Yes
  123. Forced                      : Yes
  124.  
  125. Menu
  126. 00:00:00.000                : :Old Timers
  127. 00:03:44.474                : :Last Man Standing
  128. 00:13:41.904                : :The Getting Place
  129. 00:20:50.415                : :Call It, Friend-O
  130. 00:27:52.837                : :Deal Gone Wrong
  131. 00:36:58.382                : :Jackpot
  132. 00:41:52.426                : :Another Additional Room
  133. 00:52:17.050                : :On All Night
  134. 01:04:59.312                : :Medico
  135. 01:13:08.801                : :Ultimate Badass
  136. 01:20:05.801                : :The Best Deal
  137. 01:27:35.875                : :The One Right Tool
  138. 01:34:35.127                : :What\'s Coming
  139. 01:42:21.009                : :Overmatched
  140. 01:47:22.644                : :Best I Can Do
  141. 01:56:32.652                : :End Credits
RAW Paste Data
We use cookies for various purposes including analytics. By continuing to use Pastebin, you agree to our use of cookies as described in the Cookies Policy. OK, I Understand
 
Top