Guest User

Untitled

a guest
Jan 21st, 2017
101
Never
Not a member of Pastebin yet? Sign Up, it unlocks many cool features!
  1. General
  2. Unique ID : 184525040198858200084229950269582006249 (0x8AD23AE3F49794E2AA01DF3B2A40D7E9)
  3. Complete name : F:\Video\USS.Indianapolis.Men.of.Courage.2016.BDRip.1080p.ExKinoRay.mkv
  4. Format : Matroska
  5. Format version : Version 4 / Version 2
  6. File size : 10.4 GiB
  7. Duration : 2 h 10 min
  8. Overall bit rate : 11.4 Mb/s
  9. Encoded date : UTC 2017-01-21 14:44:42
  10. Writing application : mkvmerge v8.3.0 ('Over the Horizon') 64bit
  11. Writing library : libebml v1.3.1 + libmatroska v1.4.2
  12.  
  13. Video
  14. ID : 1
  15. Format : AVC
  16. Format/Info : Advanced Video Codec
  17. Format profile : High@L4.1
  18. Format settings, CABAC : Yes
  19. Format settings, ReFrames : 10 frames
  20. Codec ID : V_MPEG4/ISO/AVC
  21. Duration : 2 h 10 min
  22. Bit rate : 10.0 Mb/s
  23. Width : 1 920 pixels
  24. Height : 800 pixels
  25. Display aspect ratio : 2.40:1
  26. Frame rate mode : Constant
  27. Frame rate : 23.976 (24000/1001) FPS
  28. Color space : YUV
  29. Chroma subsampling : 4:2:0
  30. Bit depth : 8 bits
  31. Scan type : Progressive
  32. Bits/(Pixel*Frame) : 0.272
  33. Stream size : 9.13 GiB (88%)
  34. Writing library : x264 core 148 r2744+55 950084e t_mod_Custom [8-bit@all X86]
  35. Encoding settings : cabac=1 / ref=10 / deblock=1:-3:-3 / analyse=0x3:0x133 / me=umh / subme=10 / psy=1 / fade_compensate=0.00 / psy_rd=1.00:0.15 / mixed_ref=1 / me_range=64 / chroma_me=1 / trellis=2 / 8x8dct=1 / cqm=0 / deadzone=21,11 / fast_pskip=0 / chroma_qp_offset=-3 / threads=12 / lookahead_threads=3 / sliced_threads=0 / nr=0 / decimate=1 / interlaced=0 / bluray_compat=0 / constrained_intra=0 / fgo=0 / bframes=10 / b_pyramid=2 / b_adapt=2 / b_bias=0 / direct=3 / weightb=1 / open_gop=0 / weightp=2 / keyint=300 / keyint_min=24 / scenecut=40 / intra_refresh=0 / rc_lookahead=120 / rc=crf / mbtree=1 / crf=18.0000 / qcomp=0.60 / qpmin=0:0:0 / qpmax=69:69:69 / qpstep=4 / ip_ratio=1.40 / aq=3:0.80 / aq-sensitivity=10.00 / aq-factor=1.00:1.00:1.00 / aq2=0 / aq3=0
  36. Language : English
  37. Default : Yes
  38. Forced : No
  39.  
  40. Audio #1
  41. ID : 2
  42. Format : AC-3
  43. Format/Info : Audio Coding 3
  44. Mode extension : CM (complete main)
  45. Format settings, Endianness : Big
  46. Codec ID : A_AC3
  47. Duration : 2 h 10 min
  48. Bit rate mode : Constant
  49. Bit rate : 640 kb/s
  50. Channel(s) : 6 channels
  51. Channel positions : Front: L C R, Side: L R, LFE
  52. Sampling rate : 48.0 kHz
  53. Frame rate : 31.250 FPS (1536 spf)
  54. Bit depth : 16 bits
  55. Compression mode : Lossy
  56. Stream size : 596 MiB (6%)
  57. Title : Dub [License]
  58. Language : Russian
  59. Default : Yes
  60. Forced : No
  61.  
  62. Audio #2
  63. ID : 3
  64. Format : DTS
  65. Format/Info : Digital Theater Systems
  66. Mode : 16
  67. Format settings, Endianness : Big
  68. Codec ID : A_DTS
  69. Duration : 2 h 10 min
  70. Bit rate mode : Constant
  71. Bit rate : 768 kb/s
  72. Channel(s) : 6 channels
  73. Channel positions : Front: L C R, Side: L R, LFE
  74. Sampling rate : 48.0 kHz
  75. Frame rate : 93.750 FPS (512 spf)
  76. Bit depth : 16 bits
  77. Compression mode : Lossy
  78. Stream size : 715 MiB (7%)
  79. Title : Original
  80. Language : English
  81. Default : No
  82. Forced : No
  83.  
  84. Menu
  85. 00:00:00.000 : :Chapter 01
  86. 00:07:27.238 : :Chapter 02
  87. 00:15:49.657 : :Chapter 03
  88. 00:22:52.662 : :Chapter 04
  89. 00:30:16.147 : :Chapter 05
  90. 00:37:44.553 : :Chapter 06
  91. 00:45:55.586 : :Chapter 07
  92. 00:53:28.455 : :Chapter 08
  93. 00:59:52.338 : :Chapter 09
  94. 01:07:39.680 : :Chapter 10
  95. 01:15:58.387 : :Chapter 11
  96. 01:23:01.476 : :Chapter 12
  97. 01:31:18.139 : :Chapter 13
  98. 01:37:37.685 : :Chapter 14
  99. 01:45:20.022 : :Chapter 15
  100. 01:53:53.868 : :Chapter 16
RAW Paste Data