Guest User

Untitled

a guest
Dec 7th, 2019
211
Never
Not a member of Pastebin yet? Sign Up, it unlocks many cool features!
  1. Полное имя : G:\Rambo.Last.Blood.2019.2160p.UHD.BluRay.x265.mkv
  2. Формат : Matroska
  3. Версия формата : Version 4 / Version 2
  4. Размер файла : 10,9 Гбайт
  5. Продолжительность : 1 ч. 29 м.
  6. Режим общего битрейта : Переменный
  7. Общий поток : 17,5 Мбит/сек
  8. Название фильма : Rambo Last Blood 2019 from селезень
  9. Дата кодирования : UTC 2019-12-08 05:07:36
  10. Программа кодирования : mkvmerge v38.0.0 ('The Silent Type') 32-bit
  11. Библиотека кодирования : libebml v1.3.9 + libmatroska v1.5.2
  12.  
  13. Видео
  14. Идентификатор : 1
  15. Формат : HEVC
  16. Формат/Информация : High Efficiency Video Coding
  17. Профиль формата : Main 10@L5.1@High
  18. Идентификатор кодека : V_MPEGH/ISO/HEVC
  19. Продолжительность : 1 ч. 29 м.
  20. Битрейт : 13,3 Мбит/сек
  21. Ширина : 3840 пикселей
  22. Высота : 1610 пикселей
  23. Соотношение сторон : 2,40:1
  24. Режим частоты кадров : Постоянный
  25. Частота кадров : 23,976 (24000/1001) кадра/сек
  26. Цветовое пространство : YUV
  27. Субдискретизация насыщенности : 4:2:0 (Type 2)
  28. Битовая глубина : 10 бит
  29. Бит/(Пиксели*Кадры) : 0.089
  30. Размер потока : 8,28 Гбайт (76%)
  31. Заголовок : Rambo.Last.Blood.2019.2160p.UHD.BluRay.x265
  32. Библиотека кодирования : x265 3.2+15-04db2bfee5d6:[Windows][GCC 9.2.1][64 bit] 10bit
  33. Настройки программы : cpuid=1111039 / frame-threads=5 / numa-pools=32,0 / wpp / no-pmode / no-pme / no-psnr / no-ssim / log-level=2 / input-csp=1 / input-res=3840x1610 / interlace=0 / total-frames=128705 / level-idc=51 / high-tier=1 / uhd-bd=0 / ref=4 / no-allow-non-conformance / repeat-headers / annexb / aud / hrd / info / hash=0 / no-temporal-layers / no-open-gop / min-keyint=1 / keyint=24 / gop-lookahead=0 / bframes=4 / b-adapt=2 / b-pyramid / bframe-bias=0 / rc-lookahead=25 / lookahead-slices=4 / scenecut=40 / radl=0 / no-splice / no-intra-refresh / ctu=64 / min-cu-size=8 / rect / no-amp / max-tu-size=32 / tu-inter-depth=1 / tu-intra-depth=1 / limit-tu=0 / rdoq-level=2 / dynamic-rd=0.00 / no-ssim-rd / signhide / no-tskip / nr-intra=0 / nr-inter=0 / no-constrained-intra / no-strong-intra-smoothing / max-merge=3 / limit-refs=3 / limit-modes / me=3 / subme=3 / merange=57 / temporal-mvp / no-frame-dup / no-hme / weightp / no-weightb / no-analyze-src-pics / deblock=-3:-3 / no-sao / no-sao-non-deblock / rd=4 / selective-sao=0 / no-early-skip / rskip / no-fast-intra / no-tskip-fast / no-cu-lossless / no-b-intra / no-splitrd-skip / rdpenalty=0 / psy-rd=2.00 / psy-rdoq=1.00 / no-rd-refine / no-lossless / cbqpoffs=0 / crqpoffs=0 / rc=crf / crf=17.0 / qcomp=0.60 / qpstep=4 / stats-write=0 / stats-read=0 / vbv-maxrate=160000 / vbv-bufsize=160000 / vbv-init=0.9 / crf-max=0.0 / crf-min=0.0 / ipratio=1.40 / pbratio=1.30 / aq-mode=2 / aq-strength=1.00 / cutree / zone-count=0 / no-strict-cbr / qg-size=32 / no-rc-grain / qpmax=69 / qpmin=0 / no-const-vbv / sar=1 / overscan=0 / videoformat=5 / range=0 / colorprim=9 / transfer=16 / colormatrix=9 / chromaloc=1 / chromaloc-top=2 / chromaloc-bottom=2 / display-window=0 / master-display=G(13250,34500)B(7500,3000)R(34000,16000)WP(15635,16450)L(10000000,10) / cll=1000,475 / min-luma=0 / max-luma=1023 / log2-max-poc-lsb=8 / vui-timing-info / vui-hrd-info / slices=1 / no-opt-qp-pps / no-opt-ref-list-length-pps / no-multi-pass-opt-rps / scenecut-bias=0.05 / no-opt-cu-delta-qp / no-aq-motion / hdr / hdr-opt / no-dhdr10-opt / no-idr-recovery-sei / analysis-reuse-level=5 / scale-factor=0 / refine-intra=0 / refine-inter=0 / refine-mv=1 / refine-ctu-distortion=0 / no-limit-sao / ctu-info=0 / no-lowpass-dct / refine-analysis-type=0 / copy-pic=1 / max-ausize-factor=1.0 / no-dynamic-refine / no-single-sei / no-hevc-aq / no-svt / no-field / qp-adaptation-range=1.00 / no-scenecut-aware-qp
  34. Default : Да
  35. Forced : Нет
  36. Цветовой диапазон : Limited
  37. Основные цвета : BT.2020
  38. Характеристики трансфера : SMPTE ST 2084
  39. Коэффициенты матрицы : BT.2020 non-constant
  40. MasteringDisplay_ColorPrimaries : R: x=0.680000 y=0.320000, G: x=0.265000 y=0.690000, B: x=0.150000 y=0.060000, White point: x=0.312700 y=0.329000
  41. MasteringDisplay_Luminance : min: 0.0010 cd/m2, max: 1000.0000 cd/m2
  42. MaxCLL : 1000 cd/m2
  43. MaxFALL : 475 cd/m2
  44.  
  45. Аудио #1
  46. Идентификатор : 2
  47. Формат : AC-3
  48. Формат/Информация : Audio Coding 3
  49. Расширение режима : CM (complete main)
  50. Параметр Endianness формата : Big
  51. Идентификатор кодека : A_AC3
  52. Продолжительность : 1 ч. 29 м.
  53. Вид битрейта : Постоянный
  54. Битрейт : 384 Кбит/сек
  55. Каналы : 6 каналов
  56. Расположение каналов : Front: L C R, Side: L R, LFE
  57. Частота : 48,0 КГц
  58. Частота кадров : 31,250 кадров/сек (1536 spf)
  59. Битовая глубина : 16 бит
  60. Метод сжатия : С потерями
  61. Размер потока : 246 Мбайт (2%)
  62. Заголовок : iTunes
  63. Язык : Russian
  64. Default : Да
  65. Forced : Да
  66.  
  67. Аудио #2
  68. Идентификатор : 3
  69. Формат : Atmos / TrueHD
  70. Идентификатор кодека : A_TRUEHD
  71. Продолжительность : 1 ч. 29 м.
  72. Вид битрейта : Переменный
  73. Битрейт : 3100 Кбит/сек
  74. Максимальный битрейт : 4866 Кбит/сек
  75. Каналы : Object Based / 8 каналов
  76. Расположение каналов : Object Based / Front: L C R, Side: L R, Back: L R, LFE
  77. Частота : / 48,0 КГц
  78. Частота кадров : 1200,000 кадров/сек (40 spf)
  79. Метод сжатия : Без потерь
  80. Размер потока : 1,94 Гбайт (18%)
  81. Заголовок : English Dolby TrueHD with Dolby Atmos (TrueHD)
  82. Язык : English
  83. Default : Нет
  84. Forced : Нет
  85.  
  86. Аудио #3
  87. Идентификатор : 4
  88. Формат : AC-3
  89. Формат/Информация : Audio Coding 3
  90. Расширение режима : CM (complete main)
  91. Параметр Endianness формата : Big
  92. Идентификатор кодека : A_AC3
  93. Продолжительность : 1 ч. 29 м.
  94. Вид битрейта : Постоянный
  95. Битрейт : 640 Кбит/сек
  96. Каналы : 6 каналов
  97. Расположение каналов : Front: L C R, Side: L R, LFE
  98. Частота : 48,0 КГц
  99. Частота кадров : 31,250 кадров/сек (1536 spf)
  100. Битовая глубина : 16 бит
  101. Метод сжатия : С потерями
  102. Размер потока : 410 Мбайт (4%)
  103. Заголовок : English Dolby Digital (AC3)
  104. Язык : English
  105. Default : Нет
  106. Forced : Нет
  107.  
  108. Текст #1
  109. Идентификатор : 5
  110. Формат : UTF-8
  111. Идентификатор кодека : S_TEXT/UTF8
  112. Идентификатор кодека/Информация : UTF-8 Plain Text
  113. Продолжительность : 1 ч. 18 м.
  114. Битрейт : 37 бит/сек
  115. Count of elements : 834
  116. Размер потока : 21,2 Кбайт (0%)
  117. Заголовок : English SDH
  118. Язык : English
  119. Default : Нет
  120. Forced : Нет
  121.  
  122. Текст #2
  123. Идентификатор : 6
  124. Формат : PGS
  125. Режим смешивания : zlib
  126. Идентификатор кодека : S_HDMV/PGS
  127. Идентификатор кодека/Информация : Picture based subtitle format used on BDs/HD-DVDs
  128. Продолжительность : 1 ч. 18 м.
  129. Битрейт : 26,9 Кбит/сек
  130. Count of elements : 1680
  131. Размер потока : 15,0 Мбайт (0%)
  132. Заголовок : English PGS
  133. Язык : English
  134. Default : Нет
  135. Forced : Нет
  136.  
  137. Меню
  138. 00:00:00.000 : :Chapter 01
  139. 00:04:50.081 : :Chapter 02
  140. 00:10:59.158 : :Chapter 03
  141. 00:14:35.792 : :Chapter 04
  142. 00:22:39.024 : :Chapter 05
  143. 00:25:11.719 : :Chapter 06
  144. 00:31:24.382 : :Chapter 07
  145. 00:36:12.253 : :Chapter 08
  146. 00:41:08.299 : :Chapter 09
  147. 00:46:37.878 : :Chapter 10
  148. 00:49:29.967 : :Chapter 11
  149. 00:55:04.927 : :Chapter 12
  150. 01:00:08.230 : :Chapter 13
  151. 01:05:57.495 : :Chapter 14
  152. 01:12:06.280 : :Chapter 15
  153. 01:17:47.288 : :Chapter 16
RAW Paste Data