Guest User

The Battleship Island 2017 1080p - iLoveHD

a guest
Dec 21st, 2017
429
Never
Not a member of Pastebin yet? Sign Up, it unlocks many cool features!
  1. General
  2. Unique ID : 191664191890695792599149645776171341357 (0x90312E3E9D12C904884A3E1433D0962D)
  3. Complete name : D:\Filmes\The Battleship Island 2017 1080p BluRay DTS x264-iLoveHD.mkv
  4. Format : Matroska
  5. Format version : Version 4 / Version 2
  6. File size : 15.3 GiB
  7. Duration : 2 h 12 min
  8. Overall bit rate : 16.6 Mb/s
  9. Movie name : iLoveHD @ HDB & OurBits
  10. Encoded date : UTC 2017-12-21 11:13:07
  11. Writing application : mkvmerge v8.2.0 ('World of Adventure') 64bit
  12. Writing library : libebml v1.3.1 + libmatroska v1.4.2
  13.  
  14. Video
  15. ID : 1
  16. Format : AVC
  17. Format/Info : Advanced Video Codec
  18. Format profile : High@L4.1
  19. Format settings, CABAC : Yes
  20. Format settings, ReFrames : 5 frames
  21. Codec ID : V_MPEG4/ISO/AVC
  22. Duration : 2 h 12 min
  23. Bit rate : 15.1 Mb/s
  24. Width : 1 920 pixels
  25. Height : 804 pixels
  26. Display aspect ratio : 2.40:1
  27. Frame rate mode : Constant
  28. Frame rate : 24.000 FPS
  29. Color space : YUV
  30. Chroma subsampling : 4:2:0
  31. Bit depth : 8 bits
  32. Scan type : Progressive
  33. Bits/(Pixel*Frame) : 0.407
  34. Stream size : 13.9 GiB (91%)
  35. Title : The Battleship Island 2017 1080p BluRay DTS x264-iLoveHD
  36. Writing library : x264 core 142 r2431+42 c69a006 tMod [8-bit@4:2:0 X86_64]
  37. Encoding settings : cabac=1 / ref=5 / deblock=1:-3:-3 / analyse=0x3:0x113 / me=umh / subme=11 / psy=1 / fade_compensate=0.00 / psy_rd=1.00:0.00 / mixed_ref=1 / me_range=32 / chroma_me=1 / trellis=2 / 8x8dct=1 / cqm=0 / deadzone=21,11 / fast_pskip=0 / chroma_qp_offset=-2 / threads=12 / lookahead_threads=2 / sliced_threads=0 / nr=0 / decimate=0 / interlaced=0 / bluray_compat=0 / constrained_intra=0 / fgo=0 / bframes=8 / b_pyramid=2 / b_adapt=2 / b_bias=0 / direct=3 / weightb=1 / open_gop=0 / weightp=2 / keyint=250 / keyint_min=24 / scenecut=40 / intra_refresh=0 / rc_lookahead=60 / rc=crf / mbtree=0 / crf=16.5000 / qcomp=0.60 / qpmin=0:0:0 / qpmax=69:69:69 / qpstep=4 / vbv_maxrate=62500 / vbv_bufsize=78125 / crf_max=0.0 / nal_hrd=none / filler=0 / ip_ratio=1.30 / pb_ratio=1.20 / aq=3:0.75 / aq-sensitivity=10.00 / aq-factor=1.00:1.00:1.00 / aq2=0 / aq3=0 / zones=0,820,crf=11.5/1296,4901,crf=13.5/9856,9931,crf=11.5/10436,10551,crf=11.5/14185,14208,crf=11.5/29246,31382,crf=16.7/32606,36734,crf=16.7/39566,40262,crf=16.7/40928,47430,crf=14.3/48270,48310,crf=11.5/48770,48825,crf=11.5/49110,49253,crf=11.5/52833,53553,crf=16.7/54777,54916,crf=13.5/56187,57712,crf=13.5/57863,58024,crf=13.5/58247,60299,crf=13.5/60779,61494,crf=16.7/61495,61872,crf=13.5/61896,62025,crf=16.7/62026,62273,crf=13.5/62274,62742,crf=16.7/62743,63081,crf=13.5/63082,63322,crf=13.5/63745,66072,crf=13.5/66096,67481,crf=16.7/73551,73761,crf=16.7/85844,86996,crf=16.7/88196,91628,crf=16.7/96428,97988,crf=16.7/102480,102533,crf=11.5/106934,112677,crf=14.3/118970,119061,crf=11.5/121422,123126,crf=16.7/145710,145763,crf=11.5/156375,156465,crf=11.5/157909,157968,crf=11.5/158270,158384,crf=11.5/159045,163461,crf=14.3/170510,170645,crf=11.5/178831,182863,crf=16.7/184917,190364,crf=21.5
  38. Language : English
  39. Default : Yes
  40. Forced : No
  41. Color range : Limited
  42. Color primaries : BT.709
  43. Transfer characteristics : BT.709
  44. Matrix coefficients : BT.709
  45.  
  46. Audio
  47. ID : 2
  48. Format : DTS
  49. Format/Info : Digital Theater Systems
  50. Mode : 16
  51. Format settings, Endianness : Big
  52. Codec ID : A_DTS
  53. Duration : 2 h 12 min
  54. Bit rate mode : Constant
  55. Bit rate : 1 509 kb/s
  56. Channel(s) : 6 channels
  57. Channel positions : Front: L C R, Side: L R, LFE
  58. Sampling rate : 48.0 kHz
  59. Frame rate : 93.750 FPS (512 spf)
  60. Bit depth : 24 bits
  61. Compression mode : Lossy
  62. Stream size : 1.39 GiB (9%)
  63. Language : Korean
  64. Default : Yes
  65. Forced : No
  66.  
  67. Text #1
  68. ID : 3
  69. Format : UTF-8
  70. Codec ID : S_TEXT/UTF8
  71. Codec ID/Info : UTF-8 Plain Text
  72. Duration : 2 h 9 min
  73. Bit rate : 44 b/s
  74. Count of elements : 1645
  75. Stream size : 42.5 KiB (0%)
  76. Language : English
  77. Default : Yes
  78. Forced : No
  79.  
  80. Text #2
  81. ID : 4
  82. Format : UTF-8
  83. Codec ID : S_TEXT/UTF8
  84. Codec ID/Info : UTF-8 Plain Text
  85. Duration : 2 h 10 min
  86. Bit rate : 44 b/s
  87. Count of elements : 1681
  88. Stream size : 42.4 KiB (0%)
  89. Title : CHS
  90. Language : Chinese
  91. Default : No
  92. Forced : No
  93.  
  94. Text #3
  95. ID : 5
  96. Format : UTF-8
  97. Codec ID : S_TEXT/UTF8
  98. Codec ID/Info : UTF-8 Plain Text
  99. Duration : 2 h 10 min
  100. Bit rate : 44 b/s
  101. Count of elements : 1681
  102. Stream size : 42.4 KiB (0%)
  103. Title : CHT
  104. Language : Chinese
  105. Default : No
  106. Forced : No
  107.  
  108. Menu #1
  109. 00:00:00.000 : en:00:00:00.000
  110. 00:17:40.083 : en:00:17:40.083
  111. 00:36:02.458 : en:00:36:02.458
  112. 00:52:31.542 : en:00:52:31.542
  113. 01:09:55.875 : en:01:09:55.875
  114. 01:25:31.208 : en:01:25:31.208
  115. 01:41:04.458 : en:01:41:04.458
  116. 01:56:43.292 : en:01:56:43.292
  117.  
  118. Menu #2
  119. 00:00:00.000 : en:00:00:00.000
  120. 00:17:40.083 : en:00:17:40.083
  121. 00:36:02.458 : en:00:36:02.458
  122. 00:52:31.542 : en:00:52:31.542
  123. 01:09:55.875 : en:01:09:55.875
  124. 01:25:31.208 : en:01:25:31.208
  125. 01:41:04.458 : en:01:41:04.458
  126. 01:56:43.292 : en:01:56:43.292
RAW Paste Data

Adblocker detected! Please consider disabling it...

We've detected AdBlock Plus or some other adblocking software preventing Pastebin.com from fully loading.

We don't have any obnoxious sound, or popup ads, we actively block these annoying types of ads!

Please add Pastebin.com to your ad blocker whitelist or disable your adblocking software.

×