AlemaoPS

Untitled

Aug 6th, 2019
170
Never
Not a member of Pastebin yet? Sign Up, it unlocks many cool features!
  1. Video
  2. ID : 1
  3. Format : AVC
  4. Format/Info : Advanced Video Codec
  5. Format profile : High@L4
  6. Format settings : CABAC / 4 Ref Frames
  7. Format settings, CABAC : Yes
  8. Format settings, Reference frames : 4 frames
  9. Codec ID : V_MPEG4/ISO/AVC
  10. Duration : 1 h 56 min
  11. Bit rate mode : Constant
  12. Bit rate : 10 000 kb/s
  13. Width : 1 920 pixels
  14. Height : 1 080 pixels
  15. Display aspect ratio : 16:9
  16. Frame rate mode : Constant
  17. Frame rate : 24.000 FPS
  18. Color space : YUV
  19. Chroma subsampling : 4:2:0
  20. Bit depth : 8 bits
  21. Scan type : Progressive
  22. Bits/(Pixel*Frame) : 0.201
  23. Stream size : 7.94 GiB (94%)
  24. Title : The.Operative.2019.1080p.AMZN.WEBRip.DD5.1.x264-FGT
  25. Language : English
  26. Default : Yes
  27. Forced : No
  28. Color range : Limited
  29. Color primaries : BT.709
  30. Transfer characteristics : BT.709
  31. Matrix coefficients : BT.709
  32.  
  33. Audio
  34. ID : 2
  35. Format : AC-3
  36. Format/Info : Audio Coding 3
  37. Commercial name : Dolby Digital
  38. Codec ID : A_AC3
  39. Duration : 1 h 56 min
  40. Bit rate mode : Constant
  41. Bit rate : 640 kb/s
  42. Channel(s) : 6 channels
  43. Channel layout : L R C LFE Ls Rs
  44. Sampling rate : 48.0 kHz
  45. Frame rate : 31.250 FPS (1536 SPF)
  46. Bit depth : 16 bits
  47. Compression mode : Lossy
  48. Stream size : 534 MiB (6%)
  49. Title : The.Operative.2019.1080p.AMZN.WEBRip.DD5.1.x264-FGT
  50. Language : English
  51. Service kind : Complete Main
  52. Default : Yes
  53. Forced : No
  54.  
  55. Text #1
  56. ID : 3
  57. Format : UTF-8
  58. Codec ID : S_TEXT/UTF8
  59. Codec ID/Info : UTF-8 Plain Text
  60. Duration : 1 h 47 min
  61. Bit rate : 45 b/s
  62. Count of elements : 1343
  63. Stream size : 35.7 KiB (0%)
  64. Language : English
  65. Default : Yes
  66. Forced : No
  67.  
  68. Text #2
  69. ID : 4
  70. Format : UTF-8
  71. Codec ID : S_TEXT/UTF8
  72. Codec ID/Info : UTF-8 Plain Text
  73. Duration : 1 h 50 min
  74. Bit rate : 60 b/s
  75. Count of elements : 1948
  76. Stream size : 48.7 KiB (0%)
  77. Title : SDH
  78. Language : English
  79. Default : No
  80. Forced : No
RAW Paste Data

Adblocker detected! Please consider disabling it...

We've detected AdBlock Plus or some other adblocking software preventing Pastebin.com from fully loading.

We don't have any obnoxious sound, or popup ads, we actively block these annoying types of ads!

Please add Pastebin.com to your ad blocker whitelist or disable your adblocking software.

×