GrabHD

Untitled

Mar 1st, 2020
85
Never
Not a member of Pastebin yet? Sign Up, it unlocks many cool features!
  1. General
  2. Unique ID : 234379918967467743398790005772257247560 (0xB053EE30AD46F52BB22C9CA45CBEC148)
  3. Complete name : Никогда не возвращайтесь.2018.MVO.1080p.WEB-DL.REPACK.x264-NTG.mkv
  4. Format : Matroska
  5. Format version : Version 4
  6. File size : 5.32 GiB
  7. Duration : 1 h 26 min
  8. Overall bit rate : 8 776 kb/s
  9. Movie name : Never Goin' Back [2018] [1080p] MVO
  10. Encoded date : UTC 2019-02-27 08:32:35
  11. Writing application : mkvmerge v7.8.0 ('River Man') 32bit built on Mar 27 2015 16:18:02
  12. Writing library : libebml v1.3.1 + libmatroska v1.4.2
  13. Cover : Yes
  14. Attachments : cover.jpg
  15. DIRECTOR : Augustine Frizzell
  16. GENRE : Comedy, Crime, Drama
  17. IMDB : tt7690016
  18.  
  19. Video
  20. ID : 1
  21. Format : AVC
  22. Format/Info : Advanced Video Codec
  23. Format profile : High@L4
  24. Format settings : CABAC / 4 Ref Frames
  25. Format settings, CABAC : Yes
  26. Format settings, RefFrames : 4 frames
  27. Codec ID : V_MPEG4/ISO/AVC
  28. Duration : 1 h 26 min
  29. Bit rate mode : Constant
  30. Bit rate : 7 386 kb/s
  31. Nominal bit rate : 10 000 kb/s
  32. Width : 1 920 pixels
  33. Height : 800 pixels
  34. Display aspect ratio : 2.40:1
  35. Frame rate mode : Constant
  36. Frame rate : 23.976 (24000/1001) FPS
  37. Color space : YUV
  38. Chroma subsampling : 4:2:0
  39. Bit depth : 8 bits
  40. Scan type : Progressive
  41. Bits/(Pixel*Frame) : 0.201
  42. Stream size : 4.48 GiB (84%)
  43. Title : repack
  44. Language : English
  45. Default : Yes
  46. Forced : No
  47. Color range : Limited
  48. Color primaries : BT.709
  49. Transfer characteristics : BT.709
  50. Matrix coefficients : BT.709
  51.  
  52. Audio #1
  53. ID : 2
  54. Format : AC-3
  55. Format/Info : Audio Coding 3
  56. Commercial name : Dolby Digital
  57. Codec ID : A_AC3
  58. Duration : 1 h 26 min
  59. Bit rate mode : Constant
  60. Bit rate : 384 kb/s
  61. Channel(s) : 6 channels
  62. Channel layout : L R C LFE Ls Rs
  63. Sampling rate : 48.0 kHz
  64. Frame rate : 31.250 FPS (1536 SPF)
  65. Bit depth : 16 bits
  66. Compression mode : Lossy
  67. Stream size : 239 MiB (4%)
  68. Title : MVO [Jaskier]
  69. Language : Russian
  70. Service kind : Complete Main
  71. Default : Yes
  72. Forced : No
  73.  
  74. Audio #2
  75. ID : 3
  76. Format : E-AC-3
  77. Format/Info : Enhanced AC-3
  78. Commercial name : Dolby Digital Plus
  79. Codec ID : A_EAC3
  80. Duration : 1 h 26 min
  81. Bit rate mode : Constant
  82. Bit rate : 640 kb/s
  83. Channel(s) : 6 channels
  84. Channel layout : L R C LFE Ls Rs
  85. Sampling rate : 48.0 kHz
  86. Frame rate : 31.250 FPS (1536 SPF)
  87. Compression mode : Lossy
  88. Stream size : 398 MiB (7%)
  89. Language : English
  90. Service kind : Complete Main
  91. Default : No
  92. Forced : No
  93.  
  94. Audio #3
  95. ID : 4
  96. Format : AC-3
  97. Format/Info : Audio Coding 3
  98. Commercial name : Dolby Digital
  99. Codec ID : A_AC3
  100. Duration : 1 h 26 min
  101. Bit rate mode : Constant
  102. Bit rate : 192 kb/s
  103. Channel(s) : 2 channels
  104. Channel layout : L R
  105. Sampling rate : 48.0 kHz
  106. Frame rate : 31.250 FPS (1536 SPF)
  107. Bit depth : 16 bits
  108. Compression mode : Lossy
  109. Stream size : 119 MiB (2%)
  110. Title : commentary by Augustine Frizzell, Liz Cardenas and actors
  111. Language : English
  112. Service kind : Complete Main
  113. Default : No
  114. Forced : No
  115.  
  116. Text #1
  117. ID : 5
  118. Format : UTF-8
  119. Codec ID : S_TEXT/UTF8
  120. Codec ID/Info : UTF-8 Plain Text
  121. Title : SDH from DVD
  122. Language : English
  123. Default : No
  124. Forced : No
  125.  
  126. Text #2
  127. ID : 6
  128. Format : UTF-8
  129. Codec ID : S_TEXT/UTF8
  130. Codec ID/Info : UTF-8 Plain Text
  131. Title : SDH amazon fixed'
  132. Language : English
  133. Default : No
  134. Forced : No
  135.  
  136. Text #3
  137. ID : 7
  138. Format : UTF-8
  139. Codec ID : S_TEXT/UTF8
  140. Codec ID/Info : UTF-8 Plain Text
  141. Title : SDH amazon
  142. Language : English
  143. Default : No
  144. Forced : No
  145.  
  146. Text #4
  147. ID : 8
  148. Format : UTF-8
  149. Codec ID : S_TEXT/UTF8
  150. Codec ID/Info : UTF-8 Plain Text
  151. Title : by @puchkovsubs [Владислав Шуравин, Кирилл Колосов]
  152. Language : Russian
  153. Default : No
  154. Forced : No
  155.  
  156. Menu
  157. 00:00:00.000 : en:Chapter 1
  158. 00:06:33.701 : en:Chapter 2
  159. 00:12:37.035 : en:Chapter 3
  160. 00:15:49.535 : en:Chapter 4
  161. 00:22:16.002 : en:Chapter 5
  162. 00:28:32.836 : en:Chapter 6
  163. 00:32:35.336 : en:Chapter 7
  164. 00:40:18.670 : en:Chapter 8
  165. 00:44:13.170 : en:Chapter 9
  166. 00:47:16.704 : en:Chapter 10
  167. 00:54:17.338 : en:Chapter 11
  168. 01:01:00.338 : en:Chapter 12
  169. 01:04:20.338 : en:Chapter 13
  170. 01:11:14.338 : en:Chapter 14
  171. 01:17:06.005 : en:Chapter 15
  172. 01:21:22.672 : en:Chapter 16
  173. 01:26:46.039 : en:Chapter 17
RAW Paste Data