Interfilm

Untitled

Jun 7th, 2014
223
Never
Not a member of Pastebin yet? Sign Up, it unlocks many cool features!
  1. Общее
  2. Venus.in.Fur.2013.Blu.Ray.720p.CINEMANIA.mkv
  3. Формат : Matroska
  4. Версия формата : Version 4 / Version 2
  5. Размер файла : 5,20 Гбайт
  6. Продолжительность : 1 ч. 36 м.
  7. Общий поток : 7748 Кбит/сек
  8. Название фильма : Release Group CINEMANIA
  9. Дата кодирования : UTC 2014-06-07 15:49:05
  10. Программа кодирования : mkvmerge v6.9.1 ('Blue Panther') 64bit built on Apr 18 2014 18:23:38
  11. Библиотека кодирования : libebml v1.3.0 + libmatroska v1.4.1
  12.  
  13. Видео
  14. Идентификатор : 1
  15. Формат : AVC
  16. Формат/Информация : Advanced Video Codec
  17. Профиль формата : High@L4.1
  18. Параметр CABAC формата : Да
  19. Параметр ReFrames формата : 12 кадров
  20. Идентификатор кодека : V_MPEG4/ISO/AVC
  21. Продолжительность : 1 ч. 36 м.
  22. Битрейт : 3846 Кбит/сек
  23. Ширина : 1280 пикселей
  24. Высота : 536 пикселей
  25. Соотношение сторон : 2,40:1
  26. Режим частоты кадров : Постоянный
  27. Частота кадров : 23,976 кадра/сек
  28. Цветовое пространство : YUV
  29. Субдискретизация насыщенности : 4:2:0
  30. Битовая глубина : 8 бит
  31. Тип развёртки : Прогрессивная
  32. Бит/(Пиксели*Кадры) : 0.234
  33. Размер потока : 2,47 Гбайт (47%)
  34. Заголовок : Release Group CINEMANIA
  35. Библиотека кодирования : x264 core 129 r2245+704+36 8e61944 tMod+MixAQ [8-bit@4:2:0 X86_64]
  36. Настройки программы : cabac=1 / ref=12 / deblock=1:-3:-3 / analyse=0x3:0x133 / me=umh / subme=11 / psy=1 / fade_compensate=0.00 / psy_rd=1.05:0.10 / mixed_ref=1 / me_range=32 / chroma_me=1 / trellis=2 / 8x8dct=1 / cqm=0 / deadzone=21,11 / fast_pskip=0 / chroma_qp_offset=-3 / threads=18 / lookahead_threads=3 / sliced_threads=0 / nr=0 / decimate=0 / interlaced=0 / bluray_compat=0 / constrained_intra=0 / fgo=0 / bframes=8 / b_pyramid=2 / b_adapt=2 / b_bias=0 / direct=3 / weightb=1 / open_gop=0 / weightp=2 / keyint=250 / keyint_min=23 / scenecut=40 / intra_refresh=0 / rc_lookahead=50 / rc=2pass / mbtree=1 / bitrate=3846 / ratetol=1.0 / qcomp=0.75 / qpmin=0 / qpmax=69 / qpstep=4 / cplxblur=20.0 / qblur=0.5 / ip_ratio=1.40 / aq=1 / aq-strength=0.85 / aq-sensitivity=10.00 / aq-ifactor=1.00 / aq-pfactor=1.00 / aq-bfactor=1.00 / aq2=0
  37. Язык : French
  38. Default : Да
  39. Forced : Нет
  40. Коэффициенты матрицы : BT.709
  41.  
  42. Аудио #1
  43. Идентификатор : 2
  44. Формат : AC-3
  45. Формат/Информация : Audio Coding 3
  46. Расширение режима : CM (complete main)
  47. Параметр Endianness формата : Big
  48. Идентификатор кодека : A_AC3
  49. Продолжительность : 1 ч. 36 м.
  50. Вид битрейта : Постоянный
  51. Битрейт : 448 Кбит/сек
  52. Каналы : 6 каналов
  53. Расположение каналов : Front: L C R, Side: L R, LFE
  54. Частота : 48,0 КГц
  55. Битовая глубина : 16 бит
  56. Метод сжатия : С потерями
  57. Размер потока : 308 Мбайт (6%)
  58. Заголовок : Дубляж (Чистый Звук)
  59. Язык : Russian
  60. Default : Да
  61. Forced : Да
  62.  
  63. Аудио #2
  64. Идентификатор : 3
  65. Формат : DTS
  66. Формат/Информация : Digital Theater Systems
  67. Режим : 16
  68. Параметр Endianness формата : Big
  69. Идентификатор кодека : A_DTS
  70. Продолжительность : 1 ч. 36 м.
  71. Вид битрейта : Постоянный
  72. Битрейт : 1509 Кбит/сек
  73. Каналы : 6 каналов
  74. Расположение каналов : Front: L C R, Side: L R, LFE
  75. Частота : 48,0 КГц
  76. Битовая глубина : 24 бит
  77. Метод сжатия : С потерями
  78. Размер потока : 1,01 Гбайт (19%)
  79. Заголовок : А.Матвеев
  80. Язык : Russian
  81. Default : Нет
  82. Forced : Нет
  83.  
  84. Аудио #3
  85. Идентификатор : 4
  86. Формат : AC-3
  87. Формат/Информация : Audio Coding 3
  88. Расширение режима : CM (complete main)
  89. Параметр Endianness формата : Big
  90. Идентификатор кодека : A_AC3
  91. Продолжительность : 1 ч. 36 м.
  92. Вид битрейта : Постоянный
  93. Битрейт : 448 Кбит/сек
  94. Каналы : 6 каналов
  95. Расположение каналов : Front: L C R, Side: L R, LFE
  96. Частота : 48,0 КГц
  97. Битовая глубина : 16 бит
  98. Метод сжатия : С потерями
  99. Размер потока : 308 Мбайт (6%)
  100. Заголовок : А.Матвеев
  101. Язык : Russian
  102. Default : Нет
  103. Forced : Нет
  104.  
  105. Аудио #4
  106. Идентификатор : 5
  107. Формат : DTS
  108. Формат/Информация : Digital Theater Systems
  109. Режим : 16
  110. Параметр Endianness формата : Big
  111. Идентификатор кодека : A_DTS
  112. Продолжительность : 1 ч. 36 м.
  113. Вид битрейта : Постоянный
  114. Битрейт : 1509 Кбит/сек
  115. Каналы : 6 каналов
  116. Расположение каналов : Front: L C R, Side: L R, LFE
  117. Частота : 48,0 КГц
  118. Битовая глубина : 16 бит
  119. Метод сжатия : С потерями
  120. Размер потока : 1,01 Гбайт (19%)
  121. Язык : French
  122. Default : Нет
  123. Forced : Нет
  124.  
  125. Текст #1
  126. Идентификатор : 6
  127. Формат : UTF-8
  128. Идентификатор кодека : S_TEXT/UTF8
  129. Идентификатор кодека/Информация : UTF-8 Plain Text
  130. Заголовок : notabenoid
  131. Язык : Russian
  132. Default : Нет
  133. Forced : Нет
  134.  
  135. Текст #2
  136. Идентификатор : 7
  137. Формат : UTF-8
  138. Идентификатор кодека : S_TEXT/UTF8
  139. Идентификатор кодека/Информация : UTF-8 Plain Text
  140. Язык : English
  141. Default : Нет
  142. Forced : Нет
  143.  
  144. Меню
  145. 00:00:00.000 : en:00:00:00.000
  146. 00:08:07.695 : en:00:08:07.695
  147. 00:16:12.221 : en:00:16:12.221
  148. 00:23:59.855 : en:00:23:59.855
  149. 00:32:19.687 : en:00:32:19.687
  150. 00:39:32.953 : en:00:39:32.953
  151. 00:46:53.602 : en:00:46:53.602
  152. 00:56:18.083 : en:00:56:18.083
  153. 01:03:42.527 : en:01:03:42.527
  154. 01:12:40.606 : en:01:12:40.606
  155. 01:19:08.535 : en:01:19:08.535
  156. 01:29:24.400 : en:01:29:24.400
RAW Paste Data