Advertisement
Henry_Kr

TLoVM-S01

Jan 28th, 2022
57
Never
Not a member of Pastebin yet? Sign Up, it unlocks many cool features!
  1. Video
  2. ID : 1
  3. Format : AVC
  4. Format/Info : Advanced Video Codec
  5. Format profile : High@L4
  6. Format settings : CABAC / 4 Ref Frames
  7. Format settings, CABAC : Yes
  8. Format settings, Reference : 4 frames
  9. Codec ID : V_MPEG4/ISO/AVC
  10. Duration : 27 min 7 s
  11. Bit rate mode : Constant
  12. Bit rate : 9 254 kb/s
  13. Nominal bit rate : 10 000 kb/s
  14. Width : 1 920 pixels
  15. Height : 1 080 pixels
  16. Display aspect ratio : 16:9
  17. Frame rate mode : Constant
  18. Frame rate : 23.976 (24000/1001) FPS
  19. Color space : YUV
  20. Chroma subsampling : 4:2:0
  21. Bit depth : 8 bits
  22. Scan type : Progressive
  23. Bits/(Pixel*Frame) : 0.186
  24. Stream size : 1.75 GiB (88%)
  25. Title : The.Legend.of.Vox.Machina.S01E01.Parte.I.1080p.AMZN.WEB.[CartoonNOW]
  26. Language : English
  27. Default : Yes
  28. Forced : No
  29. Color range : Limited
  30. Color primaries : BT.709
  31. Transfer characteristics : BT.709
  32. Matrix coefficients : BT.709
  33.  
  34. Audio #1
  35. ID : 2
  36. Format : E-AC-3
  37. Format/Info : Enhanced AC-3
  38. Commercial name : Dolby Digital Plus
  39. Codec ID : A_EAC3
  40. Duration : 27 min 7 s
  41. Bit rate mode : Constant
  42. Bit rate : 640 kb/s
  43. Channel(s) : 6 channels
  44. Channel layout : L R C LFE Ls Rs
  45. Sampling rate : 48.0 kHz
  46. Frame rate : 31.250 FPS (1536 SPF)
  47. Compression mode : Lossy
  48. Stream size : 124 MiB (6%)
  49. Title : E-AC3 5.1
  50. Language : Portuguese
  51. Service kind : Complete Main
  52. Default : Yes
  53. Forced : No
  54.  
  55. Audio #2
  56. ID : 3
  57. Format : E-AC-3
  58. Format/Info : Enhanced AC-3
  59. Commercial name : Dolby Digital Plus
  60. Codec ID : A_EAC3
  61. Duration : 27 min 7 s
  62. Bit rate mode : Constant
  63. Bit rate : 640 kb/s
  64. Channel(s) : 6 channels
  65. Channel layout : L R C LFE Ls Rs
  66. Sampling rate : 48.0 kHz
  67. Frame rate : 31.250 FPS (1536 SPF)
  68. Compression mode : Lossy
  69. Stream size : 124 MiB (6%)
  70. Title : E-AC3 5.1
  71. Language : English
  72. Service kind : Complete Main
  73. Default : No
  74. Forced : No
  75.  
  76. Text #1
  77. ID : 4
  78. Format : UTF-8
  79. Codec ID : S_TEXT/UTF8
  80. Codec ID/Info : UTF-8 Plain Text
  81. Duration : 4 min 2 s
  82. Bit rate : 2 b/s
  83. Count of elements : 2
  84. Stream size : 63.0 Bytes (0%)
  85. Title : Forçada
  86. Language : Portuguese
  87. Default : No
  88. Forced : Yes
  89.  
  90. Text #2
  91. ID : 5
  92. Format : UTF-8
  93. Codec ID : S_TEXT/UTF8
  94. Codec ID/Info : UTF-8 Plain Text
  95. Duration : 25 min 59 s
  96. Bit rate : 67 b/s
  97. Count of elements : 347
  98. Stream size : 12.8 KiB (0%)
  99. Title : Completa
  100. Language : Portuguese
  101. Default : No
  102. Forced : No
Advertisement
RAW Paste Data Copied
Advertisement