Henry_Kr

BTS-S01

Oct 6th, 2020
19
Never
Not a member of Pastebin yet? Sign Up, it unlocks many cool features!
  1. Video
  2. ID : 1
  3. Format : AVC
  4. Format/Info : Advanced Video Codec
  5. Format profile : Main@L3.1
  6. Format settings : CABAC / 4 Ref Frames
  7. Format settings, CABAC : Yes
  8. Format settings, Reference : 4 frames
  9. Muxing mode : Header stripping
  10. Codec ID : V_MPEG4/ISO/AVC
  11. Duration : 43 min 50 s
  12. Bit rate : 4 735 kb/s
  13. Nominal bit rate : 4 995 kb/s
  14. Width : 1 280 pixels
  15. Height : 720 pixels
  16. Display aspect ratio : 16:9
  17. Frame rate mode : Constant
  18. Frame rate : 23.976 (24000/1001) FPS
  19. Color space : YUV
  20. Chroma subsampling : 4:2:0
  21. Bit depth : 8 bits
  22. Scan type : Progressive
  23. Bits/(Pixel*Frame) : 0.214
  24. Stream size : 1.45 GiB (91%)
  25. Title : Blade.The.Series.S01E02.Piloto.Parte.II.720p.WEBRip.[CartoonNOW]
  26. Writing library : x264 core 118
  27. Language : English
  28. Default : Yes
  29. Forced : No
  30.  
  31. Audio #1
  32. ID : 2
  33. Format : AC-3
  34. Format/Info : Audio Coding 3
  35. Commercial name : Dolby Digital
  36. Muxing mode : Header stripping
  37. Codec ID : A_AC3
  38. Duration : 43 min 50 s
  39. Bit rate mode : Constant
  40. Bit rate : 192 kb/s
  41. Channel(s) : 2 channels
  42. Channel layout : L R
  43. Sampling rate : 48.0 kHz
  44. Frame rate : 31.250 FPS (1536 SPF)
  45. Compression mode : Lossy
  46. Stream size : 60.2 MiB (4%)
  47. Title : AC3 2.0
  48. Language : Portuguese
  49. Service kind : Complete Main
  50. Default : Yes
  51. Forced : No
  52.  
  53. Audio #2
  54. ID : 3
  55. Format : AC-3
  56. Format/Info : Audio Coding 3
  57. Commercial name : Dolby Digital
  58. Muxing mode : Header stripping
  59. Codec ID : A_AC3
  60. Duration : 43 min 50 s
  61. Bit rate mode : Constant
  62. Bit rate : 192 kb/s
  63. Channel(s) : 2 channels
  64. Channel layout : L R
  65. Sampling rate : 48.0 kHz
  66. Frame rate : 31.250 FPS (1536 SPF)
  67. Compression mode : Lossy
  68. Stream size : 60.2 MiB (4%)
  69. Title : AC3 2.0
  70. Language : English
  71. Service kind : Complete Main
  72. Default : No
  73. Forced : No
  74.  
  75. Text #1
  76. ID : 4
  77. Format : UTF-8
  78. Codec ID : S_TEXT/UTF8
  79. Codec ID/Info : UTF-8 Plain Text
  80. Title : Forçada
  81. Language : Portuguese
  82. Default : No
  83. Forced : Yes
  84.  
  85. Text #2
  86. ID : 5
  87. Format : UTF-8
  88. Codec ID : S_TEXT/UTF8
  89. Codec ID/Info : UTF-8 Plain Text
  90. Title : Completa
  91. Language : Portuguese
  92. Default : No
  93. Forced : No
  94.  
  95. Menu
  96. 00:00:41.393 : en: Chapter 1
  97. 00:04:08.114 : en: Chapter 2
  98. 00:04:39.041 : en: Chapter 3
  99. 00:07:12.671 : en: Chapter 4
  100. 00:14:41.939 : en: Chapter 5
  101. 00:21:46.065 : en: Chapter 6
  102. 00:27:05.209 : en: Chapter 7
  103. 00:36:01.856 : en: Chapter 8
  104.  
  105.  
RAW Paste Data