SHARE
TWEET

[HTT] Eromanga-sensei - 03 (720p Hi10 AAC) [2817CFC8].mkv

HYBRID_BEING Jul 23rd, 2017 153 Never
Not a member of Pastebin yet? Sign Up, it unlocks many cool features!
  1. General
  2. Unique ID                                : 251433328199476220596167471574516690545 (0xBD284C2E2DC12FE68A6728BB375AEE71)
  3. Complete name                            : [HTT] Eromanga-sensei - 03 (720p Hi10 AAC) [2817CFC8].mkv
  4. Format                                   : Matroska
  5. Format version                           : Version 4 / Version 2
  6. File size                                : 376 MiB
  7. Duration                                 : 23mn 35s
  8. Overall bit rate                         : 2 230 Kbps
  9. Movie name                               : [HTT] Eromanga Sensei - 03
  10. Encoded date                             : UTC 2017-04-25 23:05:00
  11. Writing application                      : mkvmerge v10.0.0 ('To Drown In You') 64bit
  12. Writing library                          : libebml v1.3.4 + libmatroska v1.4.5
  13. Attachments                              : coolvetica rg.ttf / FanwoodText-Regular.ttf / Interstate-Regular.ttf / PFSquareSansPro-Medium.ttf / TektonPro-Bold.otf / tf2build.ttf / ADHOC.TTF / AltonaBold.otf / ANDYB.TTF / ArchitectsDaughter.ttf / BLACKPLOTAN.otf
  14.  
  15. Video
  16. ID                                       : 1
  17. Format                                   : AVC
  18. Format/Info                              : Advanced Video Codec
  19. Format profile                           : High 10@L5.1
  20. Format settings, CABAC                   : Yes
  21. Format settings, ReFrames                : 5 frames
  22. Codec ID                                 : V_MPEG4/ISO/AVC
  23. Duration                                 : 23mn 34s
  24. Bit rate                                 : 2 080 Kbps
  25. Width                                    : 1 280 pixels
  26. Height                                   : 720 pixels
  27. Display aspect ratio                     : 16:9
  28. Frame rate mode                          : Constant
  29. Frame rate                               : 23.976 (24000/1001) fps
  30. Color space                              : YUV
  31. Chroma subsampling                       : 4:2:0
  32. Bit depth                                : 10 bits
  33. Scan type                                : Progressive
  34. Bits/(Pixel*Frame)                       : 0.094
  35. Stream size                              : 351 MiB (93%)
  36. Title                                    : [HTT]
  37. Writing library                          : x264 core 144 r2525kMod 40bb568
  38. Encoding settings                        : cabac=1 / ref=5 / deblock=1:0:0 / analyse=0x3:0x133 / me=umh / subme=10 / psy=1 / fade_compensate=0.00 / psy_rd=0.90:0.00 / mixed_ref=1 / me_range=32 / chroma_me=1 / trellis=2 / 8x8dct=1 / cqm=0 / deadzone=21,11 / fast_pskip=0 / chroma_qp_offset=-8 / threads=6 / lookahead_threads=1 / sliced_threads=0 / nr=0 / decimate=0 / interlaced=0 / bluray_compat=0 / constrained_intra=0 / fgo=0 / bframes=8 / b_pyramid=2 / b_adapt=2 / b_bias=0 / direct=3 / weightb=1 / open_gop=0 / weightp=2 / keyint=250 / keyint_min=23 / scenecut=40 / intra_refresh=0 / rc_lookahead=50 / rc=crf / mbtree=1 / crf=15.0000 / qcomp=0.65 / qpmin=0 / qpmax=51 / qpstep=4 / ip_ratio=1.40 / aq=3:0.90
  39. Language                                 : Japanese
  40. Default                                  : Yes
  41. Forced                                   : No
  42. Color range                              : Limited
  43. Matrix coefficients                      : BT.709
  44.  
  45. Audio
  46. ID                                       : 2
  47. Format                                   : AAC
  48. Format/Info                              : Advanced Audio Codec
  49. Format profile                           : LC
  50. Codec ID                                 : A_AAC
  51. Duration                                 : 23mn 35s
  52. Bit rate                                 : 128 Kbps
  53. Channel(s)                               : 2 channels
  54. Channel positions                        : Front: L R
  55. Sampling rate                            : 44.1 KHz
  56. Frame rate                               : 43.066 fps (1024 spf)
  57. Compression mode                         : Lossy
  58. Stream size                              : 21.6 MiB (6%)
  59. Title                                    : CR 2.0 AAC
  60. Language                                 : Japanese
  61. Default                                  : Yes
  62. Forced                                   : No
  63.  
  64. Text
  65. ID                                       : 3
  66. Format                                   : ASS
  67. Codec ID                                 : S_TEXT/ASS
  68. Codec ID/Info                            : Advanced Sub Station Alpha
  69. Duration                                 : 23mn 32s
  70. Bit rate                                 : 11.0 Kbps
  71. Count of elements                        : 9144
  72. Compression mode                         : Lossless
  73. Stream size                              : 1.85 MiB (0%)
  74. Title                                    : HTT (CR Edit)
  75. Language                                 : English
  76. Default                                  : Yes
  77. Forced                                   : No
  78.  
  79. Menu
  80. 00:00:00.000                             : en:Prologue
  81. 00:00:17.559                             : en:OP
  82. 00:01:47.065                             : en:Part A
  83. 00:12:30.541                             : en:Part B
  84. 00:22:00.528                             : en:ED
  85. 00:23:30.034                             : en:Preview
RAW Paste Data
We use cookies for various purposes including analytics. By continuing to use Pastebin, you agree to our use of cookies as described in the Cookies Policy. OK, I Understand
Top