GrabHD

Untitled

Nov 28th, 2020
17
Never
Not a member of Pastebin yet? Sign Up, it unlocks many cool features!
  1. General
  2. Unique ID : 234459449535853583173026412372942983461 (0xB0633F5993590C0EBD33C56A74E51125)
  3. Complete name : D:Men.Of.Honor.2000.Open.Matte.1080p.WEB-DL.mkv
  4. Format : Matroska
  5. Format version : Version 4
  6. File size : 11.3 GiB
  7. Duration : 2 h 8 min
  8. Overall bit rate : 12.5 Mb/s
  9. Encoded date : UTC 2020-11-28 15:29:47
  10. Writing application : mkvmerge v8.3.0 ('Over the Horizon') 32bit
  11. Writing library : libebml v1.3.1 + libmatroska v1.4.2
  12.  
  13. Video
  14. ID : 1
  15. Format : AVC
  16. Format/Info : Advanced Video Codec
  17. Format profile : High@L4
  18. Format settings : CABAC / 4 Ref Frames
  19. Format settings, CABAC : Yes
  20. Format settings, Reference : 4 frames
  21. Codec ID : V_MPEG4/ISO/AVC
  22. Duration : 2 h 8 min
  23. Bit rate : 11.1 Mb/s
  24. Width : 1 920 pixels
  25. Height : 1 080 pixels
  26. Display aspect ratio : 16:9
  27. Frame rate mode : Constant
  28. Frame rate : 23.976 (24000/1001) FPS
  29. Color space : YUV
  30. Chroma subsampling : 4:2:0
  31. Bit depth : 8 bits
  32. Scan type : Progressive
  33. Bits/(Pixel*Frame) : 0.223
  34. Stream size : 9.99 GiB (89%)
  35. Language : English
  36. Default : Yes
  37. Forced : No
  38. Color range : Limited
  39. Color primaries : BT.709
  40. Transfer characteristics : BT.709
  41. Matrix coefficients : BT.709
  42.  
  43. Audio #1
  44. ID : 2
  45. Format : AC-3
  46. Format/Info : Audio Coding 3
  47. Commercial name : Dolby Digital
  48. Codec ID : A_AC3
  49. Duration : 2 h 8 min
  50. Bit rate mode : Constant
  51. Bit rate : 384 kb/s
  52. Channel(s) : 6 channels
  53. Channel layout : L R C LFE Ls Rs
  54. Sampling rate : 48.0 kHz
  55. Frame rate : 31.250 FPS (1536 SPF)
  56. Compression mode : Lossy
  57. Stream size : 353 MiB (3%)
  58. Title : DUB
  59. Language : Russian
  60. Service kind : Complete Main
  61. Default : Yes
  62. Forced : No
  63.  
  64. Audio #2
  65. ID : 3
  66. Format : AC-3
  67. Format/Info : Audio Coding 3
  68. Commercial name : Dolby Digital
  69. Codec ID : A_AC3
  70. Duration : 2 h 8 min
  71. Bit rate mode : Constant
  72. Bit rate : 384 kb/s
  73. Channel(s) : 6 channels
  74. Channel layout : L R C LFE Ls Rs
  75. Sampling rate : 48.0 kHz
  76. Frame rate : 31.250 FPS (1536 SPF)
  77. Compression mode : Lossy
  78. Stream size : 354 MiB (3%)
  79. Title : DVO
  80. Language : Russian
  81. Service kind : Complete Main
  82. Default : No
  83. Forced : No
  84.  
  85. Audio #3
  86. ID : 4
  87. Format : E-AC-3
  88. Format/Info : Enhanced AC-3
  89. Commercial name : Dolby Digital Plus
  90. Codec ID : A_EAC3
  91. Duration : 2 h 8 min
  92. Bit rate mode : Constant
  93. Bit rate : 640 kb/s
  94. Channel(s) : 6 channels
  95. Channel layout : L R C LFE Ls Rs
  96. Sampling rate : 48.0 kHz
  97. Frame rate : 31.250 FPS (1536 SPF)
  98. Compression mode : Lossy
  99. Stream size : 590 MiB (5%)
  100. Language : English
  101. Service kind : Complete Main
  102. Default : No
  103. Forced : No
  104.  
  105. Text #1
  106. ID : 5
  107. Format : UTF-8
  108. Codec ID : S_TEXT/UTF8
  109. Codec ID/Info : UTF-8 Plain Text
  110. Duration : 2 h 8 min
  111. Bit rate : 75 b/s
  112. Count of elements : 1215
  113. Stream size : 70.7 KiB (0%)
  114. Language : Russian
  115. Default : No
  116. Forced : No
  117.  
  118. Text #2
  119. ID : 6
  120. Format : UTF-8
  121. Codec ID : S_TEXT/UTF8
  122. Codec ID/Info : UTF-8 Plain Text
  123. Duration : 1 h 59 min
  124. Bit rate : 45 b/s
  125. Count of elements : 1141
  126. Stream size : 39.7 KiB (0%)
  127. Language : English
  128. Default : No
  129. Forced : No
  130.  
  131. Menu
  132. 00:00:00.000 : :00:00:00.000
  133. 00:07:31.534 : :00:07:31.534
  134. 00:14:51.599 : :00:14:51.599
  135. 00:21:40.298 : :00:21:40.298
  136. 00:27:09.669 : :00:27:09.669
  137. 00:36:03.286 : :00:36:03.286
  138. 00:42:32.550 : :00:42:32.550
  139. 00:49:09.571 : :00:49:09.571
  140. 00:54:16.461 : :00:54:16.461
  141. 01:04:24.944 : :01:04:24.944
  142. 01:10:44.365 : :01:10:44.365
  143. 01:19:32.017 : :01:19:32.017
  144. 01:25:00.720 : :01:25:00.720
  145. 01:31:57.678 : :01:31:57.678
  146. 01:41:48.310 : :01:41:48.310
  147. 01:48:11.234 : :01:48:11.234
  148. 01:55:17.744 : :01:55:17.744
  149. 02:02:24.337 : :02:02:24.337
RAW Paste Data