HYBRID_BEING

[DameDesuYo] Eromanga-sensei - 03 (1920x1080 10bit AAC) [A4C6FC1F].mkv

Jul 23rd, 2017
550
Never
Not a member of Pastebin yet? Sign Up, it unlocks many cool features!
  1. General
  2. Unique ID : 217288344997918775244629643989149097246 (0xA378368876EC0F37B8CE6308A3E11D1E)
  3. Complete name : [DameDesuYo] Eromanga-sensei - 03 (1920x1080 10bit AAC) [A4C6FC1F].mkv
  4. Format : Matroska
  5. Format version : Version 4 / Version 2
  6. File size : 488 MiB
  7. Duration : 23mn 34s
  8. Overall bit rate : 2 894 Kbps
  9. Movie name : Eromanga-sensei - 03: Buck Naked Mansion and the Fallen Master
  10. Encoded date : UTC 2017-04-29 18:14:41
  11. Writing application : mkvmerge v9.8.0 ('Kuglblids') 32bit
  12. Writing library : libebml v1.3.4 + libmatroska v1.4.5
  13. Attachments : ChartIt_Normal.ttf / ConferenceD.TTF / DFPPop-CP-En_0.ttf / eightc.ttf / GandhiSans-Bold.otf / GandhiSans-BoldItalic.otf / PIZZADUDEPOINTERS.ttf / SourceSansPro-Regular.otf / Tkclscrd.TTF / Transit-Black.otf / VeracruzCondensed.otf
  14.  
  15. Video
  16. ID : 1
  17. Format : AVC
  18. Format/Info : Advanced Video Codec
  19. Format profile : High 10@L5.1
  20. Format settings, CABAC : Yes
  21. Format settings, ReFrames : 16 frames
  22. Codec ID : V_MPEG4/ISO/AVC
  23. Duration : 23mn 34s
  24. Bit rate : 2 662 Kbps
  25. Width : 1 920 pixels
  26. Height : 1 080 pixels
  27. Display aspect ratio : 16:9
  28. Frame rate mode : Constant
  29. Frame rate : 23.976 (24000/1001) fps
  30. Color space : YUV
  31. Chroma subsampling : 4:2:0
  32. Bit depth : 10 bits
  33. Scan type : Progressive
  34. Bits/(Pixel*Frame) : 0.054
  35. Stream size : 449 MiB (92%)
  36. Writing library : x264 core 142 r2431+42 c69a006 tMod [10-bit@all X86]
  37. Encoding settings : cabac=1 / ref=16 / deblock=1:0:0 / analyse=0x3:0x133 / me=umh / subme=10 / psy=1 / fade_compensate=0.75 / psy_rd=0.75:0.00 / mixed_ref=1 / me_range=24 / chroma_me=1 / trellis=2 / 8x8dct=1 / cqm=0 / deadzone=21,11 / fast_pskip=1 / chroma_qp_offset=-2 / threads=18 / lookahead_threads=4 / sliced_threads=0 / nr=0 / decimate=1 / interlaced=0 / bluray_compat=0 / constrained_intra=0 / fgo=0 / bframes=10 / b_pyramid=2 / b_adapt=2 / b_bias=0 / direct=3 / weightb=1 / open_gop=0 / weightp=2 / keyint=250 / keyint_min=23 / scenecut=40 / intra_refresh=0 / rc_lookahead=60 / rc=crf / mbtree=1 / crf=16.0000 / qcomp=0.75 / qpmin=0:0:0 / qpmax=81:81:81 / qpstep=4 / ip_ratio=1.40 / aq=3:0.75 / aq-sensitivity=10.00 / aq-factor=1.00:1.00:1.00 / aq2=0 / aq3=0
  38. Language : English
  39. Default : Yes
  40. Forced : No
  41. Color range : Limited
  42. Matrix coefficients : BT.709
  43.  
  44. Audio
  45. ID : 2
  46. Format : AAC
  47. Format/Info : Advanced Audio Codec
  48. Format profile : LC
  49. Codec ID : A_AAC
  50. Duration : 23mn 34s
  51. Bit rate : 192 Kbps
  52. Channel(s) : 2 channels
  53. Channel positions : Front: L R
  54. Sampling rate : 48.0 KHz
  55. Frame rate : 46.875 fps (1024 spf)
  56. Compression mode : Lossy
  57. Stream size : 31.8 MiB (7%)
  58. Language : Japanese
  59. Default : Yes
  60. Forced : No
  61.  
  62. Text
  63. ID : 3
  64. Format : ASS
  65. Codec ID : S_TEXT/ASS
  66. Codec ID/Info : Advanced Sub Station Alpha
  67. Duration : 23mn 34s
  68. Bit rate : 26.5 Kbps
  69. Count of elements : 53471
  70. Compression mode : Lossless
  71. Stream size : 4.47 MiB (1%)
  72. Language : English
  73. Default : Yes
  74. Forced : No
  75.  
  76. Menu
  77. 00:00:16.990 : en:OP
  78. 00:01:47.000 : en:Part A
  79. 00:12:30.470 : en:Part B
  80. 00:21:59.960 : en:ED
  81. 00:23:29.970 : en:Preview
RAW Paste Data