SHARE
TWEET

2017_Annabelle_Creation_Blu-Ray_1080P_DuaL_X265_10Bits_Slowe

ChrisHD13 Jun 6th, 2018 75 Never
Not a member of Pastebin yet? Sign Up, it unlocks many cool features!
  1. Complete name               : C:\2017_Annabelle_Creation_Blu-Ray_1080P_DuaL_X265_10Bits_Slower_ChrisHD.mkv
  2. Format                      : Matroska
  3. Format version              : Version 4 / Version 2
  4. File size                   : 2.16 GiB
  5. Duration                    : 1 h 49 min
  6. Overall bit rate            : 2 812 kb/s
  7. Encoded date                : UTC 2017-11-01 04:33:55
  8. Writing application         : mkvmerge v16.0.0 ('Protest') 64-bit
  9. Writing library             : libebml v1.3.5 + libmatroska v1.4.8
  10.  
  11. Video
  12. ID                          : 1
  13. Format                      : HEVC
  14. Format/Info                 : High Efficiency Video Coding
  15. Format profile              : Main 10@L4@Main
  16. Codec ID                    : V_MPEGH/ISO/HEVC
  17. Duration                    : 1 h 49 min
  18. Bit rate                    : 1 718 kb/s
  19. Width                       : 1 920 pixels
  20. Height                      : 1 080 pixels
  21. Display aspect ratio        : 16:9
  22. Frame rate mode             : Constant
  23. Frame rate                  : 23.976 (24000/1001) FPS
  24. Color space                 : YUV
  25. Chroma subsampling          : 4:2:0
  26. Bit depth                   : 10 bits
  27. Bits/(Pixel*Frame)          : 0.035
  28. Stream size                 : 1.32 GiB (61%)
  29. Title                       : BD50 - ChrisHD
  30. Writing library             : x265 2.2+2-998d4520d1cf:[Windows][GCC 6.2.0][64 bit] 10bit
  31. Encoding settings           : cpuid=1173503 / frame-threads=3 / numa-pools=8 / wpp / no-pmode / no-pme / no-psnr / no-ssim / log-level=2 / input-csp=1 / input-res=1920x1080 / interlace=0 / total-frames=157831 / level-idc=0 / high-tier=1 / uhd-bd=0 / ref=4 / no-allow-non-conformance / no-repeat-headers / annexb / no-aud / no-hrd / info / hash=0 / no-temporal-layers / open-gop / min-keyint=23 / keyint=250 / bframes=8 / b-adapt=2 / b-pyramid / bframe-bias=0 / rc-lookahead=30 / lookahead-slices=4 / scenecut=40 / no-intra-refresh / ctu=64 / min-cu-size=8 / rect / amp / max-tu-size=32 / tu-inter-depth=2 / tu-intra-depth=2 / limit-tu=0 / rdoq-level=2 / signhide / no-tskip / nr-intra=0 / nr-inter=0 / no-constrained-intra / strong-intra-smoothing / max-merge=3 / limit-refs=2 / limit-modes / me=3 / subme=3 / merange=57 / temporal-mvp / weightp / weightb / no-analyze-src-pics / deblock=0:0 / sao / no-sao-non-deblock / rd=6 / no-early-skip / rskip / no-fast-intra / no-tskip-fast / no-cu-lossless / b-intra / rdpenalty=0 / psy-rd=2.00 / psy-rdoq=1.00 / no-rd-refine / analysis-mode=0 / no-lossless / cbqpoffs=0 / crqpoffs=0 / rc=crf / crf=20.0 / qcomp=0.60 / qpstep=4 / stats-write=0 / stats-read=0 / ipratio=1.40 / pbratio=1.30 / aq-mode=1 / aq-strength=1.00 / cutree / zone-count=0 / no-strict-cbr / qg-size=32 / no-rc-grain / qpmax=69 / qpmin=0 / sar=1 / overscan=0 / videoformat=5 / range=0 / colorprim=2 / transfer=2 / colormatrix=2 / chromaloc=0 / display-window=0 / max-cll=0,0 / min-luma=0 / max-luma=1023 / log2-max-poc-lsb=8 / vui-timing-info / vui-hrd-info / slices=1 / opt-qp-pps / opt-ref-list-length-pps / no-multi-pass-opt-rps / scenecut-bias=0.05
  32. Default                     : Yes
  33. Forced                      : No
  34.  
  35. Audio #1
  36. ID                          : 2
  37. Format                      : AC-3
  38. Format/Info                 : Audio Coding 3
  39. Codec ID                    : A_AC3
  40. Duration                    : 1 h 49 min
  41. Bit rate mode               : Constant
  42. Bit rate                    : 448 kb/s
  43. Channel(s)                  : 6 channels
  44. Channel positions           : Front: L C R, Side: L R, LFE
  45. Sampling rate               : 48.0 kHz
  46. Frame rate                  : 31.250 FPS (1536 SPF)
  47. Bit depth                   : 16 bits
  48. Compression mode            : Lossy
  49. Stream size                 : 352 MiB (16%)
  50. Title                       : Ingles - ChrisHD
  51. Language                    : English
  52. Service kind                : Complete Main
  53. Default                     : Yes
  54. Forced                      : No
  55.  
  56. Audio #2
  57. ID                          : 3
  58. Format                      : AC-3
  59. Format/Info                 : Audio Coding 3
  60. Codec ID                    : A_AC3
  61. Duration                    : 1 h 49 min
  62. Bit rate mode               : Constant
  63. Bit rate                    : 640 kb/s
  64. Channel(s)                  : 6 channels
  65. Channel positions           : Front: L C R, Side: L R, LFE
  66. Sampling rate               : 48.0 kHz
  67. Frame rate                  : 31.250 FPS (1536 SPF)
  68. Bit depth                   : 16 bits
  69. Compression mode            : Lossy
  70. Stream size                 : 502 MiB (23%)
  71. Title                       : Latino - ChrisHD
  72. Language                    : Spanish
  73. Service kind                : Complete Main
  74. Default                     : No
  75. Forced                      : No
  76.  
  77. Text #1
  78. ID                          : 4
  79. Format                      : UTF-8
  80. Codec ID                    : S_TEXT/UTF8
  81. Codec ID/Info               : UTF-8 Plain Text
  82. Duration                    : 1 h 48 min
  83. Bit rate                    : 21 b/s
  84. Count of elements           : 683
  85. Stream size                 : 16.9 KiB (0%)
  86. Title                       : Latino - ChrisHD [SRT]
  87. Language                    : Spanish
  88. Default                     : Yes
  89. Forced                      : No
  90.  
  91. Text #2
  92. ID                          : 5
  93. Format                      : UTF-8
  94. Codec ID                    : S_TEXT/UTF8
  95. Codec ID/Info               : UTF-8 Plain Text
  96. Duration                    : 1 h 48 min
  97. Bit rate                    : 0 b/s
  98. Count of elements           : 7
  99. Stream size                 : 170 Bytes (0%)
  100. Title                       : Forzados - ChrisHD [SRT]
  101. Language                    : Spanish
  102. Default                     : No
  103. Forced                      : No
  104.  
  105. Text #3
  106. ID                          : 6
  107. Format                      : PGS
  108. Muxing mode                 : zlib
  109. Codec ID                    : S_HDMV/PGS
  110. Codec ID/Info               : Picture based subtitle format used on BDs/HD-DVDs
  111. Duration                    : 1 h 48 min
  112. Bit rate                    : 13.6 kb/s
  113. Count of elements           : 1400
  114. Stream size                 : 10.5 MiB (0%)
  115. Title                       : Latino - ChrisHD [PGS]
  116. Language                    : Spanish
  117. Default                     : No
  118. Forced                      : No
  119.  
  120. Text #4
  121. ID                          : 7
  122. Format                      : PGS
  123. Muxing mode                 : zlib
  124. Codec ID                    : S_HDMV/PGS
  125. Codec ID/Info               : Picture based subtitle format used on BDs/HD-DVDs
  126. Duration                    : 1 h 48 min
  127. Bit rate                    : 158 b/s
  128. Count of elements           : 14
  129. Stream size                 : 125 KiB (0%)
  130. Title                       : Forzados - ChrisHD [PGS]
  131. Language                    : Spanish
  132. Default                     : No
  133. Forced                      : No
  134.  
  135. Menu
  136. 00:00:00.000                : en:00:00:00.000
  137. 00:11:25.351                : en:00:11:25.351
  138. 00:20:35.067                : en:00:20:35.067
  139. 00:30:33.290                : en:00:30:33.290
  140. 00:42:03.604                : en:00:42:03.604
  141. 00:52:39.239                : en:00:52:39.239
  142. 01:03:12.497                : en:01:03:12.497
  143. 01:13:14.682                : en:01:13:14.682
  144. 01:23:55.614                : en:01:23:55.614
  145. 01:33:19.302                : en:01:33:19.302
  146. 01:43:27.618                : en:01:43:27.618
RAW Paste Data
We use cookies for various purposes including analytics. By continuing to use Pastebin, you agree to our use of cookies as described in the Cookies Policy. OK, I Understand
Not a member of Pastebin yet?
Sign Up, it unlocks many cool features!
 
Top