Guest User

Untitled

a guest
Nov 20th, 2021
26
Never
Not a member of Pastebin yet? Sign Up, it unlocks many cool features!
  1. General
  2. Unique ID : 218983406589240938535818321094417446204 (0xA4BEAB859B1D094D3FD24E97E131F53C)
  3. Complete name : E:\Video\Titane.2021.BDRip.720p.seleZen.mkv
  4. Format : Matroska
  5. Format version : Version 4
  6. File size : 5.30 GiB
  7. Duration : 1 h 47 min
  8. Overall bit rate : 7 021 kb/s
  9. Movie name : Titane 2021 from seleZen
  10. Encoded date : UTC 2021-11-20 06:57:55
  11. Writing application : mkvmerge v59.0.0 ('Shining Star') 64-bit
  12. Writing library : libebml v1.4.2 + libmatroska v1.6.4
  13.  
  14. Video
  15. ID : 1
  16. Format : AVC
  17. Format/Info : Advanced Video Codec
  18. Format profile : High@L4.1
  19. Format settings : CABAC / 12 Ref Frames
  20. Format settings, CABAC : Yes
  21. Format settings, Reference frames : 12 frames
  22. Codec ID : V_MPEG4/ISO/AVC
  23. Duration : 1 h 47 min
  24. Bit rate : 6 000 kb/s
  25. Width : 1 280 pixels
  26. Height : 536 pixels
  27. Display aspect ratio : 2.40:1
  28. Frame rate mode : Constant
  29. Frame rate : 24.000 FPS
  30. Color space : YUV
  31. Chroma subsampling : 4:2:0
  32. Bit depth : 8 bits
  33. Scan type : Progressive
  34. Bits/(Pixel*Frame) : 0.364
  35. Stream size : 4.52 GiB (85%)
  36. Writing library : x264 core 146 -from seleZen
  37. Encoding settings : cabac=1 / ref=12 / deblock=1:-3:-3 / analyse=0x3:0x133 / me=umh / subme=11 / psy=1 / psy_rd=1.06:0.05 / mixed_ref=1 / me_range=32 / chroma_me=1 / trellis=2 / 8x8dct=1 / cqm=0 / deadzone=21,11 / fast_pskip=0 / chroma_qp_offset=-3 / threads=36 / lookahead_threads=4 / sliced_threads=0 / nr=0 / decimate=0 / interlaced=0 / bluray_compat=0 / constrained_intra=0 / bframes=9 / b_pyramid=2 / b_adapt=2 / b_bias=0 / direct=3 / weightb=1 / open_gop=0 / weightp=2 / keyint=240 / keyint_min=23 / scenecut=40 / intra_refresh=0 / rc_lookahead=50 / rc=2pass / mbtree=0 / bitrate=6000 / ratetol=1.0 / qcomp=0.60 / qpmin=0 / qpmax=51 / qpstep=4 / cplxblur=20.0 / qblur=0.5 / vbv_maxrate=50000 / vbv_bufsize=62500 / nal_hrd=none / filler=0 / ip_ratio=1.40 / pb_ratio=1.30 / aq=3:0.80
  38. Language : English
  39. Default : Yes
  40. Forced : No
  41.  
  42. Audio #1
  43. ID : 2
  44. Format : AC-3
  45. Format/Info : Audio Coding 3
  46. Commercial name : Dolby Digital
  47. Codec ID : A_AC3
  48. Duration : 1 h 47 min
  49. Bit rate mode : Constant
  50. Bit rate : 384 kb/s
  51. Channel(s) : 6 channels
  52. Channel layout : L R C LFE Ls Rs
  53. Sampling rate : 48.0 kHz
  54. Frame rate : 31.250 FPS (1536 SPF)
  55. Compression mode : Lossy
  56. Stream size : 296 MiB (5%)
  57. Title : iTunes
  58. Language : Russian
  59. Service kind : Complete Main
  60. Default : Yes
  61. Forced : Yes
  62.  
  63. Audio #2
  64. ID : 3
  65. Format : AC-3
  66. Format/Info : Audio Coding 3
  67. Commercial name : Dolby Digital
  68. Codec ID : A_AC3
  69. Duration : 1 h 47 min
  70. Bit rate mode : Constant
  71. Bit rate : 640 kb/s
  72. Channel(s) : 6 channels
  73. Channel layout : L R C LFE Ls Rs
  74. Sampling rate : 48.0 kHz
  75. Frame rate : 31.250 FPS (1536 SPF)
  76. Compression mode : Lossy
  77. Stream size : 494 MiB (9%)
  78. Title : Original
  79. Language : French
  80. Service kind : Complete Main
  81. Default : No
  82. Forced : No
  83.  
  84. Text #1
  85. ID : 4
  86. Format : UTF-8
  87. Codec ID : S_TEXT/UTF8
  88. Codec ID/Info : UTF-8 Plain Text
  89. Duration : 1 h 47 min
  90. Bit rate : 20 b/s
  91. Count of elements : 414
  92. Stream size : 16.3 KiB (0%)
  93. Title : Full
  94. Language : Russian
  95. Default : No
  96. Forced : No
  97.  
  98. Text #2
  99. ID : 5
  100. Format : UTF-8
  101. Codec ID : S_TEXT/UTF8
  102. Codec ID/Info : UTF-8 Plain Text
  103. Duration : 1 h 39 min
  104. Bit rate : 12 b/s
  105. Count of elements : 404
  106. Stream size : 8.99 KiB (0%)
  107. Title : Full
  108. Language : English
  109. Default : No
  110. Forced : No
  111.  
  112. Text #3
  113. ID : 6
  114. Format : UTF-8
  115. Codec ID : S_TEXT/UTF8
  116. Codec ID/Info : UTF-8 Plain Text
  117. Duration : 1 h 41 min
  118. Bit rate : 19 b/s
  119. Count of elements : 681
  120. Stream size : 14.2 KiB (0%)
  121. Title : SDH
  122. Language : English
  123. Default : No
  124. Forced : No
  125.  
  126. Menu
  127. 00:00:00.000 : :Chapter 1
  128. 00:09:42.000 : :Chapter 2
  129. 00:16:54.500 : :Chapter 3
  130. 00:28:40.667 : :Chapter 4
  131. 00:36:36.708 : :Chapter 5
  132. 00:46:07.792 : :Chapter 6
  133. 00:55:21.250 : :Chapter 7
  134. 01:03:39.708 : :Chapter 8
  135. 01:12:50.000 : :Chapter 9
  136. 01:22:16.625 : :Chapter 10
  137. 01:32:49.042 : :Chapter 11
  138. 01:42:24.792 : :Chapter 12
  139.  
  140.  
RAW Paste Data