Henry_Kr

2020JP-S01

Jul 9th, 2020
51
Never
Not a member of Pastebin yet? Sign Up, it unlocks many cool features!
  1. Video
  2. ID : 1
  3. Format : AVC
  4. Format/Info : Advanced Video Codec
  5. Format profile : Main@L4
  6. Format settings : CABAC / 3 Ref Frames
  7. Format settings, CABAC : Yes
  8. Format settings, Reference : 3 frames
  9. Muxing mode : Header stripping
  10. Codec ID : V_MPEG4/ISO/AVC
  11. Duration : 25 min 30 s
  12. Bit rate mode : Variable
  13. Bit rate : 2 870 kb/s
  14. Maximum bit rate : 4 305 kb/s
  15. Width : 1 920 pixels
  16. Height : 1 080 pixels
  17. Display aspect ratio : 16:9
  18. Frame rate mode : Constant
  19. Frame rate : 23.976 (24000/1001) FPS
  20. Color space : YUV
  21. Chroma subsampling : 4:2:0
  22. Bit depth : 8 bits
  23. Scan type : Progressive
  24. Bits/(Pixel*Frame) : 0.058
  25. Stream size : 500 MiB (67%)
  26. Title : 2020.Japan.Sinks.S01E01.O.Início.do.Fim.1080p.NF.WEB.[CartoonNOW]
  27. Language : Japanese
  28. Default : Yes
  29. Forced : No
  30. Duration_Source : General_Duration
  31.  
  32. Audio #1
  33. ID : 2
  34. Format : E-AC-3
  35. Format/Info : Enhanced AC-3
  36. Commercial name : Dolby Digital Plus
  37. Muxing mode : Header stripping
  38. Codec ID : A_EAC3
  39. Duration : 25 min 30 s
  40. Bit rate mode : Constant
  41. Bit rate : 640 kb/s
  42. Channel(s) : 6 channels
  43. Channel layout : L R C LFE Ls Rs
  44. Sampling rate : 48.0 kHz
  45. Frame rate : 31.250 FPS (1536 SPF)
  46. Compression mode : Lossy
  47. Stream size : 117 MiB (16%)
  48. Title : E-AC3 5.1
  49. Language : Portuguese
  50. Service kind : Complete Main
  51. Default : Yes
  52. Forced : No
  53. Duration_Source : General_Duration
  54.  
  55. Audio #2
  56. ID : 3
  57. Format : E-AC-3
  58. Format/Info : Enhanced AC-3
  59. Commercial name : Dolby Digital Plus
  60. Muxing mode : Header stripping
  61. Codec ID : A_EAC3
  62. Duration : 25 min 30 s
  63. Bit rate mode : Constant
  64. Bit rate : 640 kb/s
  65. Channel(s) : 6 channels
  66. Channel layout : L R C LFE Ls Rs
  67. Sampling rate : 48.0 kHz
  68. Frame rate : 31.250 FPS (1536 SPF)
  69. Compression mode : Lossy
  70. Stream size : 117 MiB (16%)
  71. Title : E-AC3 5.1
  72. Language : Japanese
  73. Service kind : Complete Main
  74. Default : No
  75. Forced : No
  76. Duration_Source : General_Duration
  77.  
  78. Text
  79. ID : 4
  80. Format : UTF-8
  81. Codec ID : S_TEXT/UTF8
  82. Codec ID/Info : UTF-8 Plain Text
  83. Title : Completa
  84. Language : Portuguese
  85. Default : No
  86. Forced : No
RAW Paste Data