Guest User

Untitled

a guest
Oct 20th, 2019
260
Never
Not a member of Pastebin yet? Sign Up, it unlocks many cool features!
  1. General
  2. Unique ID : 56402002180027551107865761597919110696 (0x2A6EA167EFAC645BD084947AD450A628)
  3. Complete name : Watchmen.S01E01.iNTERNAL.1080p.WEB.h264-ROFL
  4. Format : Matroska
  5. Format version : Version 4
  6. File size : 3.74 GiB
  7. Duration : 1 h 3 min
  8. Overall bit rate : 8 475 kb/s
  9. Encoded date : UTC 2019-10-21 01:21:29
  10. Writing application : mkvmerge v37.0.0 ('Leave It') 64-bit
  11. Writing library : libebml v1.3.9 + libmatroska v1.5.2
  12.  
  13. Video
  14. ID : 1
  15. Format : AVC
  16. Format/Info : Advanced Video Codec
  17. Format profile : High@L4
  18. Format settings : CABAC / 4 Ref Frames
  19. Format settings, CABAC : Yes
  20. Format settings, Reference frames : 4 frames
  21. Codec ID : V_MPEG4/ISO/AVC
  22. Duration : 1 h 3 min
  23. Bit rate mode : Constant
  24. Bit rate : 7 833 kb/s
  25. Nominal bit rate : 10 000 kb/s
  26. Width : 1 920 pixels
  27. Height : 1 080 pixels
  28. Display aspect ratio : 16:9
  29. Frame rate mode : Constant
  30. Frame rate : 23.976 (24000/1001) FPS
  31. Color space : YUV
  32. Chroma subsampling : 4:2:0
  33. Bit depth : 8 bits
  34. Scan type : Progressive
  35. Bits/(Pixel*Frame) : 0.158
  36. Stream size : 3.45 GiB (92%)
  37. Language : English
  38. Default : Yes
  39. Forced : No
  40. Color range : Limited
  41. Color primaries : BT.709
  42. Transfer characteristics : BT.709
  43. Matrix coefficients : BT.709
  44.  
  45. Audio
  46. ID : 2
  47. Format : E-AC-3
  48. Format/Info : Enhanced AC-3
  49. Commercial name : Dolby Digital Plus
  50. Codec ID : A_EAC3
  51. Duration : 1 h 3 min
  52. Bit rate mode : Constant
  53. Bit rate : 640 kb/s
  54. Channel(s) : 6 channels
  55. Channel layout : L R C LFE Ls Rs
  56. Sampling rate : 48.0 kHz
  57. Frame rate : 31.250 FPS (1536 SPF)
  58. Compression mode : Lossy
  59. Delay relative to video : 16 ms
  60. Stream size : 289 MiB (8%)
  61. Title : English
  62. Language : English
  63. Service kind : Complete Main
  64. Default : Yes
  65. Forced : No
  66.  
  67. Text
  68. ID : 3
  69. Format : UTF-8
  70. Codec ID : S_TEXT/UTF8
  71. Codec ID/Info : UTF-8 Plain Text
  72. Duration : 1 h 3 min
  73. Bit rate : 52 b/s
  74. Count of elements : 792
  75. Stream size : 24.1 KiB (0%)
  76. Title : English (SDH)
  77. Language : English
  78. Default : No
  79. Forced : No
RAW Paste Data