Henry_Kr

DaRS-2019

Oct 4th, 2019
174
Never
Not a member of Pastebin yet? Sign Up, it unlocks many cool features!
  1. Video
  2. ID : 1
  3. Format : HEVC
  4. Format/Info : High Efficiency Video Coding
  5. Format profile : Main 10@L5.1@High
  6. HDR format : SMPTE ST 2086, HDR10 compatible
  7. Codec ID : V_MPEGH/ISO/HEVC
  8. Duration : 2 h 46 min
  9. Bit rate : 4 504 kb/s
  10. Width : 3 840 pixels
  11. Height : 2 160 pixels
  12. Display aspect ratio : 16:9
  13. Frame rate mode : Constant
  14. Frame rate : 23.976 (24000/1001) FPS
  15. Color space : YUV
  16. Chroma subsampling : 4:2:0 (Type 2)
  17. Bit depth : 10 bits
  18. Bits/(Pixel*Frame) : 0.023
  19. Stream size : 5.24 GiB (86%)
  20. Title : The.Death.and.Return.of.Superman.2019.2160p.HDR.Bluray.[CartoonNOW]
  21. Writing library : x265 3.1+20-913823aa15cd:[Windows][GCC 6.3.0][64 bit] 10bit
  22. Language : English
  23. Default : Yes
  24. Forced : No
  25. Color range : Limited
  26. Color primaries : BT.2020
  27. Transfer characteristics : PQ
  28. Matrix coefficients : BT.2020 non-constant
  29. Mastering display color pri : Display P3
  30. Mastering display luminance : min: 0.0050 cd/m2, max: 4000 cd/m2
  31. Maximum Content Light Level : 999 cd/m2
  32. Maximum Frame-Average Light : 402 cd/m2
  33.  
  34. Audio #1
  35. ID : 2
  36. Format : AC-3
  37. Format/Info : Audio Coding 3
  38. Commercial name : Dolby Digital
  39. Muxing mode : Header stripping
  40. Codec ID : A_AC3
  41. Duration : 2 h 46 min
  42. Bit rate mode : Constant
  43. Bit rate : 192 kb/s
  44. Channel(s) : 2 channels
  45. Channel layout : L R
  46. Sampling rate : 48.0 kHz
  47. Frame rate : 31.250 FPS (1536 SPF)
  48. Bit depth : 16 bits
  49. Compression mode : Lossy
  50. Delay relative to video : 100 ms
  51. Stream size : 229 MiB (4%)
  52. Title : AC3 2.0
  53. Language : Portuguese
  54. Service kind : Complete Main
  55. Default : Yes
  56. Forced : No
  57.  
  58. Audio #2
  59. ID : 3
  60. Format : AC-3
  61. Format/Info : Audio Coding 3
  62. Commercial name : Dolby Digital
  63. Muxing mode : Header stripping
  64. Codec ID : A_AC3
  65. Duration : 2 h 46 min
  66. Bit rate mode : Constant
  67. Bit rate : 448 kb/s
  68. Channel(s) : 6 channels
  69. Channel layout : L R C LFE Ls Rs
  70. Sampling rate : 48.0 kHz
  71. Frame rate : 31.250 FPS (1536 SPF)
  72. Bit depth : 16 bits
  73. Compression mode : Lossy
  74. Stream size : 533 MiB (9%)
  75. Title : AC3 5.1
  76. Language : English
  77. Service kind : Complete Main
  78. Default : No
  79. Forced : No
  80.  
  81. Text
  82. ID : 4
  83. Format : UTF-8
  84. Codec ID : S_TEXT/UTF8
  85. Codec ID/Info : UTF-8 Plain Text
  86. Title : Completa
  87. Language : Portuguese
  88. Default : No
  89. Forced : No
  90.  
  91. Menu
  92. 00:00:00.000 : :Chapter 01
  93. 00:07:48.927 : :Chapter 02
  94. 00:14:28.034 : :Chapter 03
  95. 00:25:28.193 : :Chapter 04
  96. 00:33:27.839 : :Chapter 05
  97. 00:43:19.847 : :Chapter 06
  98. 00:50:19.767 : :Chapter 07
  99. 01:00:19.282 : :Chapter 08
  100. 01:09:33.878 : :Chapter 09
  101. 01:18:22.656 : :Chapter 10
  102. 01:26:38.693 : :Chapter 11
  103. 01:32:43.266 : :Chapter 12
  104. 01:40:51.879 : :Chapter 13
  105. 01:51:19.965 : :Chapter 14
  106. 01:59:28.119 : :Chapter 15
  107. 02:08:28.743 : :Chapter 16
  108. 02:17:40.127 : :Chapter 17
  109. 02:27:44.064 : :Chapter 18
  110. 02:35:26.317 : :Chapter 19
  111. 02:42:50.094 : :Chapter 20
RAW Paste Data