Guest User

Untitled

a guest
May 10th, 2021
32
Never
Not a member of Pastebin yet? Sign Up, it unlocks many cool features!
  1. General
  2. Unique ID : 173928937641594705168805514577658254452 (0x82D97EB312BFA92DBEF51F6240F81474)
  3. Complete name : F:\Video\The.Last.Vermeer.2019.BDRip.1080p.seleZen.mkv
  4. Format : Matroska
  5. Format version : Version 4
  6. File size : 11.3 GiB
  7. Duration : 1 h 58 min
  8. Overall bit rate : 13.7 Mb/s
  9. Movie name : The Last Vermeer 2019 from seleZen
  10. Encoded date : UTC 2021-05-10 11:04:17
  11. Writing application : mkvmerge v55.0.0 ('Waiting For Space') 64-bit
  12. Writing library : libebml v1.4.2 + libmatroska v1.6.4
  13.  
  14. Video
  15. ID : 1
  16. Format : AVC
  17. Format/Info : Advanced Video Codec
  18. Format profile : High@L4.1
  19. Format settings : CABAC / 4 Ref Frames
  20. Format settings, CABAC : Yes
  21. Format settings, Reference : 4 frames
  22. Codec ID : V_MPEG4/ISO/AVC
  23. Duration : 1 h 58 min
  24. Bit rate : 12.7 Mb/s
  25. Width : 1 920 pixels
  26. Height : 1 038 pixels
  27. Display aspect ratio : 1.85:1
  28. Frame rate mode : Constant
  29. Frame rate : 23.976 (24000/1001) FPS
  30. Color space : YUV
  31. Chroma subsampling : 4:2:0
  32. Bit depth : 8 bits
  33. Scan type : Progressive
  34. Bits/(Pixel*Frame) : 0.266
  35. Stream size : 10.5 GiB (93%)
  36. Writing library : x264 core 146 -from seleZen
  37. Encoding settings : cabac=1 / ref=4 / deblock=1:-2:-2 / analyse=0x3:0x133 / me=umh / subme=10 / psy=1 / psy_rd=1.03:0.05 / mixed_ref=1 / me_range=32 / chroma_me=1 / trellis=2 / 8x8dct=1 / cqm=0 / deadzone=21,11 / fast_pskip=0 / chroma_qp_offset=-3 / threads=48 / lookahead_threads=8 / sliced_threads=0 / nr=0 / decimate=0 / interlaced=0 / bluray_compat=0 / constrained_intra=0 / bframes=9 / b_pyramid=2 / b_adapt=2 / b_bias=0 / direct=3 / weightb=1 / open_gop=0 / weightp=2 / keyint=240 / keyint_min=23 / scenecut=40 / intra_refresh=0 / rc_lookahead=50 / rc=2pass / mbtree=0 / bitrate=12687 / ratetol=1.0 / qcomp=0.60 / qpmin=0 / qpmax=51 / qpstep=4 / cplxblur=20.0 / qblur=0.5 / vbv_maxrate=50000 / vbv_bufsize=62500 / nal_hrd=none / filler=0 / ip_ratio=1.40 / pb_ratio=1.30 / aq=3:0.80
  38. Language : English
  39. Default : Yes
  40. Forced : No
  41.  
  42. Audio #1
  43. ID : 2
  44. Format : AC-3
  45. Format/Info : Audio Coding 3
  46. Commercial name : Dolby Digital
  47. Codec ID : A_AC3
  48. Duration : 1 h 58 min
  49. Bit rate mode : Constant
  50. Bit rate : 384 kb/s
  51. Channel(s) : 6 channels
  52. Channel layout : L R C LFE Ls Rs
  53. Sampling rate : 48.0 kHz
  54. Frame rate : 31.250 FPS (1536 SPF)
  55. Compression mode : Lossy
  56. Stream size : 324 MiB (3%)
  57. Title : iTunes
  58. Language : Russian
  59. Service kind : Complete Main
  60. Default : Yes
  61. Forced : Yes
  62.  
  63. Audio #2
  64. ID : 3
  65. Format : AC-3
  66. Format/Info : Audio Coding 3
  67. Commercial name : Dolby Digital
  68. Codec ID : A_AC3
  69. Duration : 1 h 58 min
  70. Bit rate mode : Constant
  71. Bit rate : 640 kb/s
  72. Channel(s) : 6 channels
  73. Channel layout : L R C LFE Ls Rs
  74. Sampling rate : 48.0 kHz
  75. Frame rate : 31.250 FPS (1536 SPF)
  76. Compression mode : Lossy
  77. Stream size : 541 MiB (5%)
  78. Title : Original
  79. Language : English
  80. Service kind : Complete Main
  81. Default : No
  82. Forced : No
  83.  
  84. Text #1
  85. ID : 4
  86. Format : UTF-8
  87. Codec ID : S_TEXT/UTF8
  88. Codec ID/Info : UTF-8 Plain Text
  89. Duration : 1 h 50 min
  90. Bit rate : 1 b/s
  91. Count of elements : 22
  92. Stream size : 1.50 KiB (0%)
  93. Title : Forced
  94. Language : Russian
  95. Default : Yes
  96. Forced : Yes
  97.  
  98. Text #2
  99. ID : 5
  100. Format : UTF-8
  101. Codec ID : S_TEXT/UTF8
  102. Codec ID/Info : UTF-8 Plain Text
  103. Duration : 1 h 57 min
  104. Bit rate : 87 b/s
  105. Count of elements : 1300
  106. Stream size : 75.3 KiB (0%)
  107. Title : Full
  108. Language : Russian
  109. Default : No
  110. Forced : No
  111.  
  112. Text #3
  113. ID : 6
  114. Format : UTF-8
  115. Codec ID : S_TEXT/UTF8
  116. Codec ID/Info : UTF-8 Plain Text
  117. Duration : 1 h 57 min
  118. Bit rate : 84 b/s
  119. Count of elements : 1299
  120. Stream size : 72.8 KiB (0%)
  121. Title : Full
  122. Language : Ukrainian
  123. Default : No
  124. Forced : No
  125.  
  126. Text #4
  127. ID : 7
  128. Format : UTF-8
  129. Codec ID : S_TEXT/UTF8
  130. Codec ID/Info : UTF-8 Plain Text
  131. Duration : 1 h 42 min
  132. Bit rate : 62 b/s
  133. Count of elements : 1278
  134. Stream size : 47.1 KiB (0%)
  135. Title : Full
  136. Language : English
  137. Default : No
  138. Forced : No
  139.  
  140. Menu
  141. 00:00:00.000 : en:Глава 01
  142. 00:07:15.143 : en:Глава 02
  143. 00:14:46.803 : en:Глава 03
  144. 00:21:07.600 : en:Глава 04
  145. 00:30:09.975 : en:Глава 05
  146. 00:36:44.494 : en:Глава 06
  147. 00:39:17.313 : en:Глава 07
  148. 00:51:08.732 : en:Глава 08
  149. 00:55:44.174 : en:Глава 09
  150. 01:04:40.001 : en:Глава 10
  151. 01:11:34.123 : en:Глава 11
  152. 01:24:04.248 : en:Глава 12
  153. 01:28:48.698 : en:Глава 13
  154. 01:32:27.667 : en:Глава 14
  155. 01:38:00.917 : en:Глава 15
  156. 01:45:41.293 : en:Глава 16
  157. 01:49:18.677 : en:Глава 17
  158. 01:58:07.622 : en:Глава 18
  159.  
  160.  
RAW Paste Data