SHARE
TWEET

Untitled

a guest Jul 4th, 2019 79 Never
Not a member of Pastebin yet? Sign Up, it unlocks many cool features!
  1. General
  2. Complete name                            : /Volumes/usenet/Filme/Friedhof.der.Kuscheltiere.2019.German.AC3.DL.2160p.UHD.BluRay.HDR.Dolby.Vision.HEVC.Remux-NIMA4K/Friedhof.der.Kuscheltiere.2019.German.AC3.DL.2160p.UHD.BluRay.HDR.Dolby.Vision.HEVC.Remux-NIMA4K.mp4
  3. Format                                   : MPEG-4
  4. Format profile                           : Base Media / Version 2
  5. Codec ID                                 : mp42 (mp42/dby1/isom)
  6. File size                                : 48.2 GiB
  7. Duration                                 : 1 h 40 min
  8. Overall bit rate                         : 68.5 Mb/s
  9. Encoded date                             : UTC 2019-07-02 18:08:02
  10. Tagged date                              : UTC 2019-07-02 18:08:02
  11.  
  12. Video #1
  13. ID                                       : 1
  14. Format                                   : HEVC
  15. Format/Info                              : High Efficiency Video Coding
  16. Format profile                           : Main 10@L5.1@High
  17. HDR format                               : SMPTE ST 2086, HDR10 compatible
  18. Codec ID                                 : hev1
  19. Codec ID/Info                            : High Efficiency Video Coding
  20. Duration                                 : 1 h 40 min
  21. Bit rate                                 : 58.9 Mb/s
  22. Width                                    : 3 840 pixels
  23. Height                                   : 2 160 pixels
  24. Display aspect ratio                     : 16:9
  25. Frame rate mode                          : Constant
  26. Frame rate                               : 23.976 (24000/1001) FPS
  27. Color space                              : YUV
  28. Chroma subsampling                       : 4:2:0 (Type 2)
  29. Bit depth                                : 10 bits
  30. Bits/(Pixel*Frame)                       : 0.296
  31. Stream size                              : 41.5 GiB (86%)
  32. Default                                  : No
  33. Encoded date                             : UTC 2019-07-02 18:08:02
  34. Tagged date                              : UTC 2019-07-02 18:08:02
  35. Color range                              : Limited
  36. Color primaries                          : BT.2020
  37. Transfer characteristics                 : PQ
  38. Matrix coefficients                      : BT.2020 non-constant
  39. Mastering display color primaries        : Display P3
  40. Mastering display luminance              : min: 0.0001 cd/m2, max: 1000 cd/m2
  41. Codec configuration box                  : hvcC
  42.  
  43. Video #2
  44. ID                                       : 2
  45. Format                                   : HEVC
  46. Format/Info                              : High Efficiency Video Coding
  47. Format profile                           : Main 10@L5.1@High
  48. HDR format                               : Dolby Vision, Version 1.0, dvhe.07.06, EL+RPU / SMPTE ST 2086, HDR10 compatible
  49. Codec ID                                 : dvhe
  50. Codec ID/Info                            : High Efficiency Video Coding with Dolby Vision
  51. Duration                                 : 1 h 40 min
  52. Bit rate                                 : 6 750 kb/s
  53. Width                                    : 1 920 pixels
  54. Height                                   : 1 080 pixels
  55. Display aspect ratio                     : 16:9
  56. Frame rate mode                          : Constant
  57. Frame rate                               : 23.976 (24000/1001) FPS
  58. Color space                              : YUV
  59. Chroma subsampling                       : 4:2:0 (Type 2)
  60. Bit depth                                : 10 bits
  61. Bits/(Pixel*Frame)                       : 0.136
  62. Stream size                              : 4.75 GiB (10%)
  63. Default                                  : No
  64. Encoded date                             : UTC 2019-07-02 18:08:02
  65. Tagged date                              : UTC 2019-07-02 18:08:02
  66. Color range                              : Limited
  67. Color primaries                          : BT.2020
  68. Transfer characteristics                 : PQ
  69. Matrix coefficients                      : BT.2020 non-constant
  70. Mastering display color primaries        : Display P3
  71. Mastering display luminance              : min: 0.0001 cd/m2, max: 1000 cd/m2
  72. Codec configuration box                  : hvcC+dvcC
  73.  
  74. Audio #1
  75. ID                                       : 3
  76. Format                                   : AC-3
  77. Format/Info                              : Audio Coding 3
  78. Commercial name                          : Dolby Digital
  79. Codec ID                                 : ac-3
  80. Duration                                 : 1 h 40 min
  81. Bit rate mode                            : Constant
  82. Bit rate                                 : 640 kb/s
  83. Channel(s)                               : 6 channels
  84. Channel layout                           : L R C LFE Ls Rs
  85. Sampling rate                            : 48.0 kHz
  86. Frame rate                               : 31.250 FPS (1536 SPF)
  87. Bit depth                                : 16 bits
  88. Compression mode                         : Lossy
  89. Stream size                              : 461 MiB (1%)
  90. Language                                 : German
  91. Service kind                             : Complete Main
  92. Default                                  : No
  93. Encoded date                             : UTC 2019-07-02 18:08:02
  94. Tagged date                              : UTC 2019-07-02 18:08:02
  95.  
  96. Audio #2
  97. ID                                       : 4
  98. Format                                   : AC-3
  99. Format/Info                              : Audio Coding 3
  100. Commercial name                          : Dolby Digital
  101. Codec ID                                 : ac-3
  102. Duration                                 : 1 h 40 min
  103. Bit rate mode                            : Constant
  104. Bit rate                                 : 640 kb/s
  105. Channel(s)                               : 6 channels
  106. Channel layout                           : L R C LFE Ls Rs
  107. Sampling rate                            : 48.0 kHz
  108. Frame rate                               : 31.250 FPS (1536 SPF)
  109. Bit depth                                : 16 bits
  110. Compression mode                         : Lossy
  111. Stream size                              : 461 MiB (1%)
  112. Language                                 : English
  113. Service kind                             : Complete Main
  114. Default                                  : No
  115. Encoded date                             : UTC 2019-07-02 18:08:02
  116. Tagged date                              : UTC 2019-07-02 18:08:02
  117.  
  118. Audio #3
  119. ID                                       : 5
  120. Format                                   : E-AC-3
  121. Format/Info                              : Enhanced AC-3
  122. Commercial name                          : Dolby Digital Plus
  123. Format profile                           : Blu-ray Disc
  124. Codec ID                                 : ac-3
  125. Duration                                 : 1 h 40 min
  126. Bit rate mode                            : Constant
  127. Bit rate                                 : 1 536 kb/s
  128. Channel(s)                               : 8 channels
  129. Channel layout                           : L R C LFE Ls Rs Lb Rb
  130. Sampling rate                            : 48.0 kHz
  131. Frame rate                               : 31.250 FPS (1536 SPF)
  132. Bit depth                                : 16 bits
  133. Compression mode                         : Lossy
  134. Stream size                              : 1.08 GiB (2%)
  135. Language                                 : English
  136. Service kind                             : Complete Main
  137. Default                                  : No
  138. Encoded date                             : UTC 2019-07-02 18:08:02
  139. Tagged date                              : UTC 2019-07-02 18:08:02
RAW Paste Data
We use cookies for various purposes including analytics. By continuing to use Pastebin, you agree to our use of cookies as described in the Cookies Policy. OK, I Understand
 
Top