GrabHD

Untitled

Feb 20th, 2020
150
Never
Not a member of Pastebin yet? Sign Up, it unlocks many cool features!
  1. Общее
  2. Уникальный идентификатор : 216211984809631668310771322998558849677 (0xA2A8E9E0E7A909C2A8521160D3C87A8D)
  3. Полное имя : D:\Раздача\Rzhev.2019.WEB-DLRip-AVC.grab777.mkv
  4. Формат : Matroska
  5. Версия формата : Version 4 / Version 2
  6. Размер файла : 1,81 Гбайт
  7. Продолжительность : 1 ч. 57 м.
  8. Общий поток : 2211 Кбит/сек
  9. Название фильма : Ржев.2019.WEB-DLRip-AVC.grab777
  10. Дата кодирования : UTC 2020-02-20 14:22:01
  11. Программа кодирования : mkvmerge v7.3.0 ('Nouages') 64bit built on Oct 22 2014 18:53:34
  12. Библиотека кодирования : libebml v1.3.0 + libmatroska v1.4.1
  13.  
  14. Видео
  15. Идентификатор : 1
  16. Формат : AVC
  17. Формат/Информация : Advanced Video Codec
  18. Профиль формата : High@L4.1
  19. Настройки формата : CABAC / 12 Ref Frames
  20. Параметр CABAC формата : Да
  21. Параметр RefFrames формата : 12 кадров
  22. Идентификатор кодека : V_MPEG4/ISO/AVC
  23. Продолжительность : 1 ч. 57 м.
  24. Битрейт : 1825 Кбит/сек
  25. Ширина : 1024 пикселя
  26. Высота : 424 пикселя
  27. Соотношение сторон : 2,40:1
  28. Режим частоты кадров : Постоянный
  29. Частота кадров : 23,976 (24000/1001) кадра/сек
  30. Цветовое пространство : YUV
  31. Субдискретизация насыщенности : 4:2:0
  32. Битовая глубина : 8 бит
  33. Тип развёртки : Прогрессивная
  34. Бит/(Пиксели*Кадры) : 0.175
  35. Размер потока : 1,50 Гбайт (83%)
  36. Заголовок : Rip by grab777
  37. Библиотека кодирования : x264 core 148 r2665M a01e339
  38. Настройки программы : cabac=1 / ref=12 / deblock=1:-2:-2 / analyse=0x3:0x133 / me=umh / subme=10 / psy=1 / psy_rd=1.00:0.15 / mixed_ref=1 / me_range=32 / chroma_me=1 / trellis=2 / 8x8dct=1 / cqm=0 / deadzone=21,11 / fast_pskip=0 / chroma_qp_offset=-3 / threads=5 / lookahead_threads=1 / sliced_threads=0 / nr=0 / decimate=1 / interlaced=0 / bluray_compat=0 / constrained_intra=0 / bframes=10 / b_pyramid=2 / b_adapt=2 / b_bias=0 / direct=3 / weightb=1 / open_gop=0 / weightp=2 / keyint=230 / keyint_min=23 / scenecut=40 / intra_refresh=0 / rc_lookahead=40 / rc=crf / mbtree=1 / crf=20.6 / qcomp=0.90 / qpmin=3 / qpmax=69 / qpstep=4 / vbv_maxrate=40000 / vbv_bufsize=30000 / crf_max=31.0 / nal_hrd=none / filler=0 / ip_ratio=1.40 / aq=1:0.00
  39. Язык : English
  40. Default : Да
  41. Forced : Нет
  42. Цветовой диапазон : Limited
  43. Основные цвета : BT.709
  44. Характеристики трансфера : BT.709
  45. Коэффициенты матрицы : BT.709
  46.  
  47. Аудио
  48. Идентификатор : 2
  49. Формат : AC-3
  50. Формат/Информация : Audio Coding 3
  51. Параметр Endianness формата : Big
  52. Идентификатор кодека : A_AC3
  53. Продолжительность : 1 ч. 57 м.
  54. Вид битрейта : Постоянный
  55. Битрейт : 384 Кбит/сек
  56. Каналы : 6 каналов
  57. Расположение каналов : Front: L C R, Side: L R, LFE
  58. Частота : 48,0 КГц
  59. Частота кадров : 31,250 кадров/сек (1536 SPF)
  60. Битовая глубина : 16 бит
  61. Метод сжатия : С потерями
  62. Размер потока : 322 Мбайт (17%)
  63. Заголовок : iTunes
  64. Язык : Russian
  65. ServiceKind/String : Complete Main
  66. Default : Да
  67. Forced : Нет
  68.  
  69. Меню
  70. 00:00:00.000 : :1
  71. 00:08:45.000 : :2
  72. 00:18:17.000 : :3
  73. 00:28:49.000 : :4
  74. 00:38:03.000 : :5
  75. 00:49:30.000 : :6
  76. 00:58:22.000 : :7
  77. 01:07:04.000 : :8
  78. 01:16:42.000 : :9
  79. 01:27:13.000 : :10
  80. 01:37:41.000 : :11
  81. 01:47:42.000 : :12
  82. 01:54:42.000 : :13
RAW Paste Data