HYBRID_BEING

[Kuroi] Blood Lad - 02 [1280x720 Hi10P BD][311B2BF3].mkv

Sep 20th, 2016
143
Never
Not a member of Pastebin yet? Sign Up, it unlocks many cool features!
  1. General
  2. Unique ID : 236851487886579160737339739222373249031 (0xB22FEFF231C4907C93EFC3C1AFB73007)
  3. Complete name : [Kuroi] Blood Lad - 02 [1280x720 Hi10P BD][311B2BF3].mkv
  4. Format : Matroska
  5. Format version : Version 2
  6. File size : 474 MiB
  7. Duration : 24 min
  8. Overall bit rate mode : Variable
  9. Overall bit rate : 2 694 kb/s
  10. Encoded date : UTC 2014-02-27 20:08:05
  11. Writing application : mkvmerge v4.1.1 ('Bouncin' Back') built on Jul 3 2010 22:54:08
  12. Writing library : libebml v1.0.0 + libmatroska v1.0.0
  13. Attachments : YARDSALE.TTF / 14 minutes sharp.ttf / ADHOC.TTF / AeroDB Normal.ttf / akbar.ttf / ANA-ONEIROPARMENI82.TTF / angie_atore.ttf / ANNA.otf / Arista 2.0.ttf / ARLRDBD.TTF / ArtificeSSK.ttf / AstersHand-Regular.ttf / augie.ttf / BAARS_.TTF / Basic Comical Regular NC.ttf / BASKVILL.TTF / BellGothic-Black.otf / BiffoMTStd.otf / bip.ttf / Brianne_s_hand.ttf / BrushType-SemiBold.ttf / BurstMyBubble.ttf / CAC Moose.ttf / CantoraOne-Regular.ttf / CharterBT-Bold.otf / ClearfaceGothicLTStd-Roman.otf / ClubTypeMercuriusMedium.ttf / Complete in Him.ttf / DADHAND.TTF / dandelion in the spring.ttf / dfkaic_0.ttc / DFLIS6.TTC / DFMrg9.ttc / DK Crayon Crumble.ttf / duprrg_.ttf / edosz.ttf / ERASBD.TTF / erasdust.ttf / FRADM.TTF / FRADMCN.TTF / FRAHV.TTF / Full-Dece-Sans-1.0.ttf / Gabrielle.ttf / Gabriola.ttf / GenBasB.ttf / GoudyStd-Bold.otf / HaleysHand-Regular.ttf / HANDWRITTEN_CRYSTAL_V2.TTF / HanksHand-Regular.ttf / HelveticaCdBlk(1).ttf / HGRPP1.TTC / HoboStd.otf / Humana_Sans_Md_ITC_TT_Medium.ttf / IMFeENrm28P.ttf / JandaEverydayCasual.ttf / JandaManateeSolid.ttf / JanicesHand-Regular.ttf / KGPrimaryPenmanship2.ttf / KGYouWontBringMeDownBold.ttf / Kingthings Serifique.ttf / kokilab.ttf / KozMinPr6N-Bold.otf / KozMinPr6N-ExtraLight.otf / KozMinPr6N-Heavy.otf / KozMinPr6N-Light.otf / KozMinPr6N-Medium.otf / KozMinPr6N-Regular.otf / LearningToTrust.ttf / LinotypeFinnegan_Medium.ttf / LinotypeFinnegan_Medium_1.ttf / LoveYaLikeASisterSolid.ttf / LT_3italic.ttf / Minecraftia.ttf / MyLuckyPenny.ttf / NeverSayNever.ttf / NicolasHand-Regular.ttf / NortonsHand-Regular.ttf / Oregano-Regular.ttf / pickax.ttf / pickax__.ttf / PLASC__.TTF / RoydensHand-Regular.ttf / RUZICKATYPEK (1).TTF / SammysHand-Regular.ttf / SF Archery Black.ttf / SqueakyChalkSound_0.ttf / Syntax.otf / the night.ttf / times.ttf / Ubuntu-B.ttf / Vesta-Bold.otf / Wil2ghbd.ttf
  14.  
  15. Video
  16. ID : 1
  17. Format : AVC
  18. Format/Info : Advanced Video Codec
  19. Format profile : High 10@L4.1
  20. Format settings, CABAC : Yes
  21. Format settings, ReFrames : 8 frames
  22. Codec ID : V_MPEG4/ISO/AVC
  23. Duration : 24 min
  24. Bit rate : 2 385 kb/s
  25. Width : 1 280 pixels
  26. Height : 720 pixels
  27. Display aspect ratio : 16:9
  28. Frame rate mode : Constant
  29. Frame rate : 23.976 (24000/1001) FPS
  30. Color space : YUV
  31. Chroma subsampling : 4:2:0
  32. Bit depth : 10 bits
  33. Scan type : Progressive
  34. Bits/(Pixel*Frame) : 0.108
  35. Stream size : 419 MiB (89%)
  36. Title : 10bit
  37. Writing library : x264 OWA Raws
  38. Encoding settings : 19-10-2013 / Откодировано / OWA / vk.com/O_W_A
  39. Language : Japanese
  40. Default : Yes
  41. Forced : No
  42. Color range : Limited
  43. Color primaries : BT.709
  44. Transfer characteristics : BT.709
  45. Matrix coefficients : BT.709
  46.  
  47. Audio
  48. ID : 2
  49. Format : Vorbis
  50. Format settings, Floor : 1
  51. Codec ID : A_VORBIS
  52. Duration : 24 min
  53. Bit rate mode : Variable
  54. Bit rate : 256 kb/s
  55. Channel(s) : 2 channels
  56. Sampling rate : 48.0 kHz
  57. Compression mode : Lossy
  58. Stream size : 45.0 MiB (10%)
  59. Title : Vorbis
  60. Writing library : libVorbis 1.0 (UTC 2002-07-17)
  61. Language : Japanese
  62. Default : Yes
  63. Forced : No
  64.  
  65. Text
  66. ID : 3
  67. Format : ASS
  68. Codec ID : S_TEXT/ASS
  69. Codec ID/Info : Advanced Sub Station Alpha
  70. Compression mode : Lossless
  71. Title : Kaitou
  72. Language : English
  73. Default : Yes
  74. Forced : No
  75.  
  76. Menu
  77. 00:00:00.000 : en:Intro
  78. 00:00:41.083 : en:Opening
  79. 00:02:11.006 : en:Part A
  80. 00:13:45.033 : en:Part B
  81. 00:22:31.016 : en:Ending
  82. 00:24:00.981 : en:Part C
  83. 00:24:20.000 : en:Preview - 03
RAW Paste Data

Adblocker detected! Please consider disabling it...

We've detected AdBlock Plus or some other adblocking software preventing Pastebin.com from fully loading.

We don't have any obnoxious sound, or popup ads, we actively block these annoying types of ads!

Please add Pastebin.com to your ad blocker whitelist or disable your adblocking software.

×