Guest User

Untitled

a guest
May 31st, 2014
179
Never
Not a member of Pastebin yet? Sign Up, it unlocks many cool features!
  1. Общее
  2. Bends.2013.Blu.Ray.720p.CINEMANIA.mkv
  3. Формат : Matroska
  4. Версия формата : Version 4 / Version 2
  5. Размер файла : 4,36 Гбайт
  6. Продолжительность : 1 ч. 35 м.
  7. Общий поток : 6543 Кбит/сек
  8. Название фильма : Release Group CINEMANIA
  9. Дата кодирования : UTC 2014-05-31 12:58:02
  10. Программа кодирования : mkvmerge v6.9.1 ('Blue Panther') 64bit built on Apr 18 2014 18:23:38
  11. Библиотека кодирования : libebml v1.3.0 + libmatroska v1.4.1
  12.  
  13. Видео
  14. Идентификатор : 1
  15. Формат : AVC
  16. Формат/Информация : Advanced Video Codec
  17. Профиль формата : High@L4.1
  18. Параметр CABAC формата : Да
  19. Параметр ReFrames формата : 9 кадров
  20. Идентификатор кодека : V_MPEG4/ISO/AVC
  21. Продолжительность : 1 ч. 35 м.
  22. Битрейт : 5468 Кбит/сек
  23. Ширина : 1280 пикселей
  24. Высота : 690 пикселей
  25. Соотношение сторон : 1,85:1
  26. Режим частоты кадров : Постоянный
  27. Частота кадров : 24,000 кадра/сек
  28. Цветовое пространство : YUV
  29. Субдискретизация насыщенности : 4:2:0
  30. Битовая глубина : 8 бит
  31. Тип развёртки : Прогрессивная
  32. Бит/(Пиксели*Кадры) : 0.258
  33. Размер потока : 3,55 Гбайт (81%)
  34. Заголовок : Release Group CINEMANIA
  35. Библиотека кодирования : x264 core 129 r2245+704+36 8e61944 tMod+MixAQ [8-bit@4:2:0 X86_64]
  36. Настройки программы : cabac=1 / ref=9 / deblock=1:-3:-3 / analyse=0x3:0x133 / me=umh / subme=11 / psy=1 / fade_compensate=0.00 / psy_rd=1.05:0.10 / mixed_ref=1 / me_range=32 / chroma_me=1 / trellis=2 / 8x8dct=1 / cqm=0 / deadzone=21,11 / fast_pskip=0 / chroma_qp_offset=-3 / threads=18 / lookahead_threads=3 / sliced_threads=0 / nr=0 / decimate=0 / interlaced=0 / bluray_compat=0 / constrained_intra=0 / fgo=0 / bframes=8 / b_pyramid=2 / b_adapt=2 / b_bias=0 / direct=3 / weightb=1 / open_gop=0 / weightp=2 / keyint=250 / keyint_min=24 / scenecut=40 / intra_refresh=0 / rc_lookahead=80 / rc=2pass / mbtree=1 / bitrate=5468 / ratetol=1.0 / qcomp=0.70 / qpmin=0 / qpmax=69 / qpstep=4 / cplxblur=20.0 / qblur=0.5 / ip_ratio=1.40 / aq=3 / aq-strength=0.80 / aq-sensitivity=10.00 / aq-ifactor=1.00 / aq-pfactor=1.00 / aq-bfactor=1.00 / aq2=0
  37. Язык : Chinese
  38. Default : Да
  39. Forced : Нет
  40. Коэффициенты матрицы : BT.709
  41.  
  42. Аудио #1
  43. Идентификатор : 2
  44. Формат : AC-3
  45. Формат/Информация : Audio Coding 3
  46. Расширение режима : CM (complete main)
  47. Параметр Endianness формата : Big
  48. Идентификатор кодека : A_AC3
  49. Продолжительность : 1 ч. 35 м.
  50. Вид битрейта : Постоянный
  51. Битрейт : 448 Кбит/сек
  52. Каналы : 6 каналов
  53. Расположение каналов : Front: L C R, Side: L R, LFE
  54. Частота : 48,0 КГц
  55. Битовая глубина : 16 бит
  56. Метод сжатия : С потерями
  57. Размер потока : 306 Мбайт (7%)
  58. Заголовок : PashaUp
  59. Язык : Russian
  60. Default : Да
  61. Forced : Да
  62.  
  63. Аудио #2
  64. Идентификатор : 3
  65. Формат : AC-3
  66. Формат/Информация : Audio Coding 3
  67. Расширение режима : CM (complete main)
  68. Параметр Endianness формата : Big
  69. Идентификатор кодека : A_AC3
  70. Продолжительность : 1 ч. 35 м.
  71. Вид битрейта : Постоянный
  72. Битрейт : 640 Кбит/сек
  73. Каналы : 6 каналов
  74. Расположение каналов : Front: L C R, Side: L R, LFE
  75. Частота : 48,0 КГц
  76. Битовая глубина : 16 бит
  77. Метод сжатия : С потерями
  78. Размер потока : 437 Мбайт (10%)
  79. Язык : Chinese
  80. Default : Нет
  81. Forced : Нет
  82.  
  83. Текст #1
  84. Идентификатор : 4
  85. Формат : UTF-8
  86. Идентификатор кодека : S_TEXT/UTF8
  87. Идентификатор кодека/Информация : UTF-8 Plain Text
  88. Заголовок : julz_nsk
  89. Язык : Russian
  90. Default : Нет
  91. Forced : Нет
  92.  
  93. Текст #2
  94. Идентификатор : 5
  95. Формат : UTF-8
  96. Идентификатор кодека : S_TEXT/UTF8
  97. Идентификатор кодека/Информация : UTF-8 Plain Text
  98. Язык : English
  99. Default : Нет
  100. Forced : Нет
  101.  
  102. Меню
  103. 00:00:00.000 : en:00:00:00.000
  104. 00:05:35.375 : en:00:05:35.375
  105. 00:10:33.958 : en:00:10:33.958
  106. 00:15:59.666 : en:00:15:59.666
  107. 00:21:01.333 : en:00:21:01.333
  108. 00:25:30.708 : en:00:25:30.708
  109. 00:30:45.541 : en:00:30:45.541
  110. 00:37:12.708 : en:00:37:12.708
  111. 00:41:13.333 : en:00:41:13.333
  112. 00:46:14.208 : en:00:46:14.208
  113. 00:51:26.833 : en:00:51:26.833
  114. 00:56:19.000 : en:00:56:19.000
  115. 01:00:37.083 : en:01:00:37.083
  116. 01:06:38.166 : en:01:06:38.166
  117. 01:11:19.333 : en:01:11:19.333
  118. 01:17:48.833 : en:01:17:48.833
  119. 01:26:45.916 : en:01:26:45.916
  120. 01:33:08.666 : en:01:33:08.666
  121. 01:35:54.666 : en:01:35:54.666
RAW Paste Data

Adblocker detected! Please consider disabling it...

We've detected AdBlock Plus or some other adblocking software preventing Pastebin.com from fully loading.

We don't have any obnoxious sound, or popup ads, we actively block these annoying types of ads!

Please add Pastebin.com to your ad blocker whitelist or disable your adblocking software.

×