Secasa

novia

Sep 5th, 2014
310
Never
Not a member of Pastebin yet? Sign Up, it unlocks many cool features!
  1. Format : Matroska
  2. Format version : Version 4 / Version 2
  3. File size : 4.36 GiB
  4. Duration : 1h 14mn
  5. Overall bit rate mode : Variable
  6. Overall bit rate : 8 347 Kbps
  7. Encoded date : UTC 2014-09-01 20:45:37
  8. Writing application : mkvmerge v6.3.0 ('You can't stop me!') built on Jun 28 2013 20:09:41
  9. Writing library : libebml v1.3.0 + libmatroska v1.4.0
  10.  
  11. Video
  12. ID : 1
  13. Format : AVC
  14. Format/Info : Advanced Video Codec
  15. Format profile : High@L4.0
  16. Format settings, CABAC : Yes
  17. Format settings, ReFrames : 3 frames
  18. Codec ID : V_MPEG4/ISO/AVC
  19. Duration : 1h 14mn
  20. Bit rate : 6 175 Kbps
  21. Width : 1 456 pixels
  22. Height : 1 080 pixels
  23. Display aspect ratio : 4:3
  24. Frame rate : 23.976 fps
  25. Color space : YUV
  26. Chroma subsampling : 4:2:0
  27. Bit depth : 8 bits
  28. Scan type : Progressive
  29. Bits/(Pixel*Frame) : 0.164
  30. Stream size : 3.22 GiB (74%)
  31. Writing library : x264 core 130 r2273 b3065e6
  32. Encoding settings : cabac=1 / ref=4 / deblock=1:-2:-2 / analyse=0x3:0x113 / me=hex / subme=9 / psy=1 / psy_rd=1,00:0,15 / mixed_ref=1 / me_range=16 / chroma_me=1 / trellis=2 / 8x8dct=1 / cqm=0 / deadzone=21,11 / fast_pskip=1 / chroma_qp_offset=-3 / threads=12 / lookahead_threads=1 / sliced_threads=0 / nr=0 / decimate=1 / interlaced=0 / bluray_compat=0 / constrained_intra=0 / bframes=4 / b_pyramid=1 / b_adapt=2 / b_bias=0 / direct=1 / weightb=1 / open_gop=0 / weightp=1 / keyint=240 / keyint_min=24 / scenecut=40 / intra_refresh=0 / rc_lookahead=40 / rc=crf / mbtree=1 / crf=22,0 / qcomp=0,60 / qpmin=0 / qpmax=69 / qpstep=4 / ip_ratio=1,40 / aq=1:1,00
  33. Language : English
  34. Default : Yes
  35. Forced : No
  36. Color primaries : BT.709-5, BT.1361, IEC 61966-2-4, SMPTE RP177
  37. Transfer characteristics : BT.709-5, BT.1361
  38. Matrix coefficients : BT.709-5, BT.1361, IEC 61966-2-4 709, SMPTE RP177
  39.  
  40. Audio #1
  41. ID : 2
  42. Format : DTS
  43. Format/Info : Digital Theater Systems
  44. Format profile : MA / Core
  45. Codec ID : A_DTS
  46. Duration : 1h 14mn
  47. Bit rate mode : Variable
  48. Bit rate : 1 558 Kbps / 1 510 Kbps
  49. Channel(s) : 2 channels
  50. Channel positions : Front: L R
  51. Sampling rate : 48.0 KHz
  52. Bit depth : 24 bits
  53. Compression mode : Lossless / Lossy
  54. Title : DTS-HD Ingles
  55. Language : English
  56. Default : Yes
  57. Forced : No
  58.  
  59. Audio #2
  60. ID : 3
  61. Format : DTS
  62. Format/Info : Digital Theater Systems
  63. Codec ID : A_DTS
  64. Duration : 1h 14mn
  65. Bit rate mode : Constant
  66. Bit rate : 448 Kbps
  67. Channel(s) : 2 channels
  68. Channel positions : Front: L R
  69. Sampling rate : 48.0 KHz
  70. Bit depth : 24 bits
  71. Compression mode : Lossy
  72. Stream size : 239 MiB (5%)
  73. Title : DTS Castellano
  74. Language : Spanish
  75. Default : No
  76. Forced : No
  77.  
  78. Text #1
  79. ID : 4
  80. Format : PGS
  81. Muxing mode : zlib
  82. Codec ID : S_HDMV/PGS
  83. Codec ID/Info : The same subtitle format used on BDs/HD-DVDs
  84. Title : Ingles
  85. Language : English
  86. Default : No
  87. Forced : No
  88.  
  89. Text #2
  90. ID : 5
  91. Format : PGS
  92. Muxing mode : zlib
  93. Codec ID : S_HDMV/PGS
  94. Codec ID/Info : The same subtitle format used on BDs/HD-DVDs
  95. Title : Castellano
  96. Language : Spanish
  97. Default : No
  98. Forced : No
  99.  
  100. Text #3
  101. ID : 6
  102. Format : PGS
  103. Muxing mode : zlib
  104. Codec ID : S_HDMV/PGS
  105. Codec ID/Info : The same subtitle format used on BDs/HD-DVDs
  106. Title : Ingles
  107. Language : English
  108. Default : No
  109. Forced : No
  110.  
  111. Text #4
  112. ID : 7
  113. Format : PGS
  114. Muxing mode : zlib
  115. Codec ID : S_HDMV/PGS
  116. Codec ID/Info : The same subtitle format used on BDs/HD-DVDs
  117. Title : Castellano
  118. Language : Spanish
  119. Default : No
  120. Forced : No
  121.  
  122. Text #5
  123. ID : 8
  124. Format : PGS
  125. Muxing mode : zlib
  126. Codec ID : S_HDMV/PGS
  127. Codec ID/Info : The same subtitle format used on BDs/HD-DVDs
  128. Title : Castellano
  129. Language : Spanish
  130. Default : No
  131. Forced : No
RAW Paste Data