HYBRID_BEING

[Kuusou] New Game! - 02 [0F126C1C].mkv

Jul 29th, 2016
113
Never
Not a member of Pastebin yet? Sign Up, it unlocks many cool features!
  1. General
  2. Unique ID : 254350990674788945787608772933493470200 (0xBF5A380BF61159A190D1B2B63ACC33F8)
  3. Complete name : [Kuusou] New Game! - 02 [0F126C1C].mkv
  4. Format : Matroska
  5. Format version : Version 4 / Version 2
  6. File size : 305 MiB
  7. Duration : 23mn 39s
  8. Overall bit rate : 1 803 Kbps
  9. Encoded date : UTC 2016-07-12 19:41:40
  10. Writing application : mkvmerge v8.8.0 ('Wind at my back') 32bit
  11. Writing library : libebml v1.3.3 + libmatroska v1.4.4
  12. Attachments : OpenSans-Semibold.ttf / Cabin-Bold.otf / Cabin-BoldItalic.otf / Eager_Naturalist.ttf / fc_fl_en.ttf
  13.  
  14. Video
  15. ID : 1
  16. Format : AVC
  17. Format/Info : Advanced Video Codec
  18. Format profile : High 10@L5
  19. Format settings, CABAC : Yes
  20. Format settings, ReFrames : 16 frames
  21. Codec ID : V_MPEG4/ISO/AVC
  22. Duration : 23mn 39s
  23. Bit rate : 1 546 Kbps
  24. Width : 1 280 pixels
  25. Height : 720 pixels
  26. Display aspect ratio : 16:9
  27. Frame rate mode : Constant
  28. Frame rate : 23.976 (24000/1001) fps
  29. Color space : YUV
  30. Chroma subsampling : 4:2:0
  31. Bit depth : 10 bits
  32. Scan type : Progressive
  33. Bits/(Pixel*Frame) : 0.070
  34. Stream size : 262 MiB (86%)
  35. Writing library : x264 core 148 r2705kMod 3f5ed56
  36. Encoding settings : cabac=1 / ref=16 / deblock=1:0:0 / analyse=0x3:0x133 / me=umh / subme=10 / psy=1 / fade_compensate=0.80 / psy_rd=0.75:0.00 / mixed_ref=1 / me_range=24 / chroma_me=1 / trellis=2 / 8x8dct=1 / cqm=0 / deadzone=21,11 / fast_pskip=1 / chroma_qp_offset=-2 / threads=12 / lookahead_threads=3 / sliced_threads=0 / nr=0 / decimate=1 / interlaced=0 / bluray_compat=0 / constrained_intra=0 / fgo=0 / bframes=16 / b_pyramid=2 / b_adapt=2 / b_bias=0 / direct=3 / weightb=1 / open_gop=0 / weightp=2 / keyint=250 / keyint_min=23 / scenecut=40 / intra_refresh=0 / rc_lookahead=60 / rc=crf / mbtree=1 / crf=16.0000 / qcomp=0.65 / qpmin=0 / qpmax=81 / qpstep=4 / ip_ratio=1.40 / aq=3:0.80
  37. Language : English
  38. Default : Yes
  39. Forced : No
  40. Color range : Limited
  41. Matrix coefficients : BT.709
  42.  
  43. Audio
  44. ID : 2
  45. Format : AAC
  46. Format/Info : Advanced Audio Codec
  47. Format profile : LC
  48. Codec ID : A_AAC
  49. Duration : 23mn 39s
  50. Bit rate : 252 Kbps
  51. Channel(s) : 2 channels
  52. Channel positions : Front: L R
  53. Sampling rate : 48.0 KHz
  54. Frame rate : 46.875 fps (1024 spf)
  55. Compression mode : Lossy
  56. Stream size : 42.7 MiB (14%)
  57. Default : Yes
  58. Forced : No
  59.  
  60. Text
  61. ID : 3
  62. Format : ASS
  63. Codec ID : S_TEXT/ASS
  64. Codec ID/Info : Advanced Sub Station Alpha
  65. Duration : 23mn 37s
  66. Bit rate : 234 bps
  67. Count of elements : 614
  68. Compression mode : Lossless
  69. Stream size : 40.6 KiB (0%)
  70. Default : Yes
  71. Forced : No
  72.  
  73. Menu
  74. 00:00:00.000 : :Intro
  75. 00:00:35.953 : :OP
  76. 00:02:05.876 : :Part A
  77. 00:11:15.842 : :Part B
  78. 00:20:32.773 : :ED
  79. 00:22:02.738 : :Part C
  80. 00:23:24.862 : :Preview
RAW Paste Data