Guest User

Untitled

a guest
May 7th, 2019
157
Never
Not a member of Pastebin yet? Sign Up, it unlocks many cool features!
  1. General
  2. Complete name : The.Thin.Red.Line.1998.Criterion.Collection.BluRay.1080p.DTS-HD.MA.5.1.AVC.REMUX-FraMeSToR.mkv
  3. Format : Matroska
  4. Format version : Version 4
  5. File size : 34.3 GiB
  6. Duration : 2 h 50 min
  7. Overall bit rate mode : Variable
  8. Overall bit rate : 28.7 Mb/s
  9. Encoded date : UTC 2018-04-14 14:50:08
  10. Writing application : mkvmerge v22.0.0 ('At The End Of The World') 64-bit
  11. Writing library : libebml v1.3.5 + libmatroska v1.4.8
  12.  
  13. Video
  14. ID : 1
  15. Format : AVC
  16. Format/Info : Advanced Video Codec
  17. Format profile : High@L4.1
  18. Format settings : CABAC / 4 Ref Frames
  19. Format settings, CABAC : Yes
  20. Format settings, Reference frames : 4 frames
  21. Codec ID : V_MPEG4/ISO/AVC
  22. Duration : 2 h 50 min
  23. Bit rate mode : Variable
  24. Bit rate : 23.0 Mb/s
  25. Maximum bit rate : 37.0 Mb/s
  26. Width : 1 920 pixels
  27. Height : 1 080 pixels
  28. Display aspect ratio : 16:9
  29. Frame rate mode : Constant
  30. Frame rate : 23.976 (24000/1001) FPS
  31. Color space : YUV
  32. Chroma subsampling : 4:2:0
  33. Bit depth : 8 bits
  34. Scan type : Progressive
  35. Bits/(Pixel*Frame) : 0.463
  36. Stream size : 27.4 GiB (80%)
  37. Default : Yes
  38. Forced : No
  39. Color range : Limited
  40. Color primaries : BT.709
  41. Transfer characteristics : BT.709
  42. Matrix coefficients : BT.709
  43.  
  44. Audio #1
  45. ID : 2
  46. Format : DTS XLL
  47. Format/Info : Digital Theater Systems
  48. Commercial name : DTS-HD Master Audio
  49. Codec ID : A_DTS
  50. Duration : 2 h 50 min
  51. Bit rate mode : Variable
  52. Bit rate : 4 314 kb/s
  53. Channel(s) : 6 channels
  54. Channel layout : C L R Ls Rs LFE
  55. Sampling rate : 48.0 kHz
  56. Frame rate : 93.750 FPS (512 SPF)
  57. Bit depth : 24 bits
  58. Compression mode : Lossless
  59. Stream size : 5.15 GiB (15%)
  60. Title : DTS-HD MA 5.1
  61. Language : English
  62. Default : Yes
  63. Forced : No
  64.  
  65. Audio #2
  66. ID : 3
  67. Format : AC-3
  68. Format/Info : Audio Coding 3
  69. Commercial name : Dolby Digital
  70. Codec ID : A_AC3
  71. Duration : 2 h 50 min
  72. Bit rate mode : Constant
  73. Bit rate : 224 kb/s
  74. Channel(s) : 2 channels
  75. Channel layout : L R
  76. Sampling rate : 48.0 kHz
  77. Frame rate : 31.250 FPS (1536 SPF)
  78. Bit depth : 16 bits
  79. Compression mode : Lossy
  80. Delay relative to video : 9 s 801 ms
  81. Stream size : 273 MiB (1%)
  82. Title : Commentary by cinematographer John Toll, production designer Jack Fisk and producer Grant Hill
  83. Language : English
  84. Service kind : Complete Main
  85. Default : No
  86. Forced : No
  87.  
  88. Text #1
  89. ID : 4
  90. Format : PGS
  91. Codec ID : S_HDMV/PGS
  92. Codec ID/Info : Picture based subtitle format used on BDs/HD-DVDs
  93. Duration : 2 h 48 min
  94. Bit rate : 18.4 kb/s
  95. Count of elements : 2216
  96. Stream size : 22.2 MiB (0%)
  97. Title : English
  98. Language : English
  99. Default : No
  100. Forced : No
  101.  
  102. Text #2
  103. ID : 5
  104. Format : PGS
  105. Codec ID : S_HDMV/PGS
  106. Codec ID/Info : Picture based subtitle format used on BDs/HD-DVDs
  107. Duration : 2 h 49 min
  108. Bit rate : 20.8 kb/s
  109. Count of elements : 2554
  110. Stream size : 25.3 MiB (0%)
  111. Title : English (SDH)
  112. Language : English
  113. Default : No
  114. Forced : No
  115.  
  116. Text #3
  117. ID : 6
  118. Format : PGS
  119. Codec ID : S_HDMV/PGS
  120. Codec ID/Info : Picture based subtitle format used on BDs/HD-DVDs
  121. Duration : 2 h 49 min
  122. Bit rate : 11.9 kb/s
  123. Count of elements : 2220
  124. Stream size : 14.4 MiB (0%)
  125. Title : Chinese (Cantonese)
  126. Language : Chinese
  127. Default : No
  128. Forced : No
  129.  
  130. Text #4
  131. ID : 7
  132. Format : PGS
  133. Codec ID : S_HDMV/PGS
  134. Codec ID/Info : Picture based subtitle format used on BDs/HD-DVDs
  135. Duration : 2 h 49 min
  136. Bit rate : 12.8 kb/s
  137. Count of elements : 2216
  138. Stream size : 15.6 MiB (0%)
  139. Title : Chinese (Traditional)
  140. Language : Chinese
  141. Default : No
  142. Forced : No
  143.  
  144. Text #5
  145. ID : 8
  146. Format : PGS
  147. Codec ID : S_HDMV/PGS
  148. Codec ID/Info : Picture based subtitle format used on BDs/HD-DVDs
  149. Duration : 2 h 49 min
  150. Bit rate : 12.1 kb/s
  151. Count of elements : 2066
  152. Stream size : 14.6 MiB (0%)
  153. Title : Croatian
  154. Language : Croatian
  155. Default : No
  156. Forced : No
  157.  
  158. Text #6
  159. ID : 9
  160. Format : PGS
  161. Codec ID : S_HDMV/PGS
  162. Codec ID/Info : Picture based subtitle format used on BDs/HD-DVDs
  163. Duration : 2 h 48 min
  164. Bit rate : 17.0 kb/s
  165. Count of elements : 2218
  166. Stream size : 20.5 MiB (0%)
  167. Title : Czech
  168. Language : Czech
  169. Default : No
  170. Forced : No
  171.  
  172. Text #7
  173. ID : 10
  174. Format : PGS
  175. Codec ID : S_HDMV/PGS
  176. Codec ID/Info : Picture based subtitle format used on BDs/HD-DVDs
  177. Duration : 2 h 48 min
  178. Bit rate : 16.2 kb/s
  179. Count of elements : 2144
  180. Stream size : 19.5 MiB (0%)
  181. Title : Danish
  182. Language : Danish
  183. Default : No
  184. Forced : No
  185.  
  186. Text #8
  187. ID : 11
  188. Format : PGS
  189. Codec ID : S_HDMV/PGS
  190. Codec ID/Info : Picture based subtitle format used on BDs/HD-DVDs
  191. Duration : 2 h 48 min
  192. Bit rate : 16.9 kb/s
  193. Count of elements : 1994
  194. Stream size : 20.4 MiB (0%)
  195. Title : Dutch
  196. Language : Dutch
  197. Default : No
  198. Forced : No
  199.  
  200. Text #9
  201. ID : 12
  202. Format : PGS
  203. Codec ID : S_HDMV/PGS
  204. Codec ID/Info : Picture based subtitle format used on BDs/HD-DVDs
  205. Duration : 2 h 49 min
  206. Bit rate : 15.2 kb/s
  207. Count of elements : 1894
  208. Stream size : 18.4 MiB (0%)
  209. Title : Estonian
  210. Language : Estonian
  211. Default : No
  212. Forced : No
  213.  
  214. Text #10
  215. ID : 13
  216. Format : PGS
  217. Codec ID : S_HDMV/PGS
  218. Codec ID/Info : Picture based subtitle format used on BDs/HD-DVDs
  219. Duration : 2 h 48 min
  220. Bit rate : 19.4 kb/s
  221. Count of elements : 2088
  222. Stream size : 23.4 MiB (0%)
  223. Title : Finnish
  224. Language : Finnish
  225. Default : No
  226. Forced : No
  227.  
  228. Text #11
  229. ID : 14
  230. Format : PGS
  231. Codec ID : S_HDMV/PGS
  232. Codec ID/Info : Picture based subtitle format used on BDs/HD-DVDs
  233. Duration : 2 h 48 min
  234. Bit rate : 17.9 kb/s
  235. Count of elements : 2118
  236. Stream size : 21.6 MiB (0%)
  237. Title : French
  238. Language : French
  239. Default : No
  240. Forced : No
  241.  
  242. Text #12
  243. ID : 15
  244. Format : PGS
  245. Codec ID : S_HDMV/PGS
  246. Codec ID/Info : Picture based subtitle format used on BDs/HD-DVDs
  247. Duration : 2 h 48 min
  248. Bit rate : 20.4 kb/s
  249. Count of elements : 2184
  250. Stream size : 24.7 MiB (0%)
  251. Title : German
  252. Language : German
  253. Default : No
  254. Forced : No
  255.  
  256. Text #13
  257. ID : 16
  258. Format : PGS
  259. Codec ID : S_HDMV/PGS
  260. Codec ID/Info : Picture based subtitle format used on BDs/HD-DVDs
  261. Duration : 2 h 48 min
  262. Bit rate : 18.3 kb/s
  263. Count of elements : 2224
  264. Stream size : 22.1 MiB (0%)
  265. Title : Greek
  266. Language : Greek
  267. Default : No
  268. Forced : No
  269.  
  270. Text #14
  271. ID : 17
  272. Format : PGS
  273. Codec ID : S_HDMV/PGS
  274. Codec ID/Info : Picture based subtitle format used on BDs/HD-DVDs
  275. Duration : 2 h 49 min
  276. Bit rate : 12.0 kb/s
  277. Count of elements : 1866
  278. Stream size : 14.6 MiB (0%)
  279. Title : Hebrew
  280. Language : Hebrew
  281. Default : No
  282. Forced : No
  283.  
  284. Text #15
  285. ID : 18
  286. Format : PGS
  287. Codec ID : S_HDMV/PGS
  288. Codec ID/Info : Picture based subtitle format used on BDs/HD-DVDs
  289. Duration : 2 h 48 min
  290. Bit rate : 17.4 kb/s
  291. Count of elements : 2156
  292. Stream size : 21.0 MiB (0%)
  293. Title : Hungarian
  294. Language : Hungarian
  295. Default : No
  296. Forced : No
  297.  
  298. Text #16
  299. ID : 19
  300. Format : PGS
  301. Codec ID : S_HDMV/PGS
  302. Codec ID/Info : Picture based subtitle format used on BDs/HD-DVDs
  303. Duration : 2 h 48 min
  304. Bit rate : 18.8 kb/s
  305. Count of elements : 2176
  306. Stream size : 22.7 MiB (0%)
  307. Title : Icelandic
  308. Language : Icelandic
  309. Default : No
  310. Forced : No
  311.  
  312. Text #17
  313. ID : 20
  314. Format : PGS
  315. Codec ID : S_HDMV/PGS
  316. Codec ID/Info : Picture based subtitle format used on BDs/HD-DVDs
  317. Duration : 2 h 48 min
  318. Bit rate : 17.8 kb/s
  319. Count of elements : 2174
  320. Stream size : 21.5 MiB (0%)
  321. Title : Italian
  322. Language : Italian
  323. Default : No
  324. Forced : No
  325.  
  326. Text #18
  327. ID : 21
  328. Format : PGS
  329. Codec ID : S_HDMV/PGS
  330. Codec ID/Info : Picture based subtitle format used on BDs/HD-DVDs
  331. Duration : 2 h 49 min
  332. Bit rate : 9 798 b/s
  333. Count of elements : 2112
  334. Stream size : 11.9 MiB (0%)
  335. Title : Korean
  336. Language : Korean
  337. Default : No
  338. Forced : No
  339.  
  340. Text #19
  341. ID : 22
  342. Format : PGS
  343. Codec ID : S_HDMV/PGS
  344. Codec ID/Info : Picture based subtitle format used on BDs/HD-DVDs
  345. Duration : 2 h 49 min
  346. Bit rate : 14.4 kb/s
  347. Count of elements : 1890
  348. Stream size : 17.4 MiB (0%)
  349. Title : Latvian
  350. Language : Latvian
  351. Default : No
  352. Forced : No
  353.  
  354. Text #20
  355. ID : 23
  356. Format : PGS
  357. Codec ID : S_HDMV/PGS
  358. Codec ID/Info : Picture based subtitle format used on BDs/HD-DVDs
  359. Duration : 2 h 49 min
  360. Bit rate : 14.1 kb/s
  361. Count of elements : 1880
  362. Stream size : 17.1 MiB (0%)
  363. Title : Lithuanian
  364. Language : Lithuanian
  365. Default : No
  366. Forced : No
  367.  
  368. Text #21
  369. ID : 24
  370. Format : PGS
  371. Codec ID : S_HDMV/PGS
  372. Codec ID/Info : Picture based subtitle format used on BDs/HD-DVDs
  373. Duration : 2 h 48 min
  374. Bit rate : 17.9 kb/s
  375. Count of elements : 2142
  376. Stream size : 21.7 MiB (0%)
  377. Title : Norwegian
  378. Language : Norwegian
  379. Default : No
  380. Forced : No
  381.  
  382. Text #22
  383. ID : 25
  384. Format : PGS
  385. Codec ID : S_HDMV/PGS
  386. Codec ID/Info : Picture based subtitle format used on BDs/HD-DVDs
  387. Duration : 2 h 48 min
  388. Bit rate : 18.2 kb/s
  389. Count of elements : 2138
  390. Stream size : 21.9 MiB (0%)
  391. Title : Polish
  392. Language : Polish
  393. Default : No
  394. Forced : No
  395.  
  396. Text #23
  397. ID : 26
  398. Format : PGS
  399. Codec ID : S_HDMV/PGS
  400. Codec ID/Info : Picture based subtitle format used on BDs/HD-DVDs
  401. Duration : 2 h 49 min
  402. Bit rate : 17.9 kb/s
  403. Count of elements : 2130
  404. Stream size : 21.8 MiB (0%)
  405. Title : Portuguese (Brazilian)
  406. Language : Portuguese
  407. Default : No
  408. Forced : No
  409.  
  410. Text #24
  411. ID : 27
  412. Format : PGS
  413. Codec ID : S_HDMV/PGS
  414. Codec ID/Info : Picture based subtitle format used on BDs/HD-DVDs
  415. Duration : 2 h 48 min
  416. Bit rate : 19.7 kb/s
  417. Count of elements : 2200
  418. Stream size : 23.8 MiB (0%)
  419. Title : Portuguese
  420. Language : Portuguese
  421. Default : No
  422. Forced : No
  423.  
  424. Text #25
  425. ID : 28
  426. Format : PGS
  427. Codec ID : S_HDMV/PGS
  428. Codec ID/Info : Picture based subtitle format used on BDs/HD-DVDs
  429. Duration : 2 h 49 min
  430. Bit rate : 15.6 kb/s
  431. Count of elements : 2218
  432. Stream size : 18.9 MiB (0%)
  433. Title : Romanian
  434. Language : Romanian
  435. Default : No
  436. Forced : No
  437.  
  438. Text #26
  439. ID : 29
  440. Format : PGS
  441. Codec ID : S_HDMV/PGS
  442. Codec ID/Info : Picture based subtitle format used on BDs/HD-DVDs
  443. Duration : 2 h 49 min
  444. Bit rate : 16.1 kb/s
  445. Count of elements : 2212
  446. Stream size : 19.6 MiB (0%)
  447. Title : Russian
  448. Language : Russian
  449. Default : No
  450. Forced : No
  451.  
  452. Text #27
  453. ID : 30
  454. Format : PGS
  455. Codec ID : S_HDMV/PGS
  456. Codec ID/Info : Picture based subtitle format used on BDs/HD-DVDs
  457. Duration : 2 h 48 min
  458. Bit rate : 14.0 kb/s
  459. Count of elements : 2060
  460. Stream size : 16.9 MiB (0%)
  461. Title : Slovenian
  462. Language : Slovenian
  463. Default : No
  464. Forced : No
  465.  
  466. Text #28
  467. ID : 31
  468. Format : PGS
  469. Codec ID : S_HDMV/PGS
  470. Codec ID/Info : Picture based subtitle format used on BDs/HD-DVDs
  471. Duration : 2 h 49 min
  472. Bit rate : 15.7 kb/s
  473. Count of elements : 2212
  474. Stream size : 19.1 MiB (0%)
  475. Title : Spanish (Latin American)
  476. Language : Spanish
  477. Default : No
  478. Forced : No
  479.  
  480. Text #29
  481. ID : 32
  482. Format : PGS
  483. Codec ID : S_HDMV/PGS
  484. Codec ID/Info : Picture based subtitle format used on BDs/HD-DVDs
  485. Duration : 2 h 49 min
  486. Bit rate : 18.1 kb/s
  487. Count of elements : 2146
  488. Stream size : 22.0 MiB (0%)
  489. Title : Spanish (Castilian)
  490. Language : Spanish
  491. Default : No
  492. Forced : No
  493.  
  494. Text #30
  495. ID : 33
  496. Format : PGS
  497. Codec ID : S_HDMV/PGS
  498. Codec ID/Info : Picture based subtitle format used on BDs/HD-DVDs
  499. Duration : 2 h 48 min
  500. Bit rate : 16.0 kb/s
  501. Count of elements : 2146
  502. Stream size : 19.3 MiB (0%)
  503. Title : Swedish
  504. Language : Swedish
  505. Default : No
  506. Forced : No
  507.  
  508. Text #31
  509. ID : 34
  510. Format : PGS
  511. Codec ID : S_HDMV/PGS
  512. Codec ID/Info : Picture based subtitle format used on BDs/HD-DVDs
  513. Duration : 2 h 48 min
  514. Bit rate : 15.4 kb/s
  515. Count of elements : 2214
  516. Stream size : 18.6 MiB (0%)
  517. Title : Thai
  518. Language : Thai
  519. Default : No
  520. Forced : No
  521.  
  522. Text #32
  523. ID : 35
  524. Format : PGS
  525. Codec ID : S_HDMV/PGS
  526. Codec ID/Info : Picture based subtitle format used on BDs/HD-DVDs
  527. Duration : 2 h 48 min
  528. Bit rate : 18.5 kb/s
  529. Count of elements : 2170
  530. Stream size : 22.4 MiB (0%)
  531. Title : Turkish
  532. Language : Turkish
  533. Default : No
  534. Forced : No
  535.  
  536. Text #33
  537. ID : 36
  538. Format : PGS
  539. Codec ID : S_HDMV/PGS
  540. Codec ID/Info : Picture based subtitle format used on BDs/HD-DVDs
  541. Duration : 2 h 49 min
  542. Bit rate : 16.0 kb/s
  543. Count of elements : 2204
  544. Stream size : 19.4 MiB (0%)
  545. Title : Ukrainian
  546. Language : Ukrainian
  547. Default : No
  548. Forced : No
  549.  
  550. Text #34
  551. ID : 37
  552. Format : PGS
  553. Codec ID : S_HDMV/PGS
  554. Codec ID/Info : Picture based subtitle format used on BDs/HD-DVDs
  555. Duration : 2 h 49 min
  556. Bit rate : 61.3 kb/s
  557. Count of elements : 5332
  558. Stream size : 74.4 MiB (0%)
  559. Title : English (Commentary)
  560. Language : English
  561. Default : No
  562. Forced : No
  563.  
  564. Text #35
  565. ID : 38
  566. Format : PGS
  567. Codec ID : S_HDMV/PGS
  568. Codec ID/Info : Picture based subtitle format used on BDs/HD-DVDs
  569. Duration : 2 h 49 min
  570. Bit rate : 43.8 kb/s
  571. Count of elements : 5238
  572. Stream size : 53.2 MiB (0%)
  573. Title : Chinese (Commentary)
  574. Language : Chinese
  575. Default : No
  576. Forced : No
  577.  
  578. Text #36
  579. ID : 39
  580. Format : PGS
  581. Codec ID : S_HDMV/PGS
  582. Codec ID/Info : Picture based subtitle format used on BDs/HD-DVDs
  583. Duration : 2 h 49 min
  584. Bit rate : 47.3 kb/s
  585. Count of elements : 5288
  586. Stream size : 57.5 MiB (0%)
  587. Title : Danish (Commentary)
  588. Language : Danish
  589. Default : No
  590. Forced : No
  591.  
  592. Text #37
  593. ID : 40
  594. Format : PGS
  595. Codec ID : S_HDMV/PGS
  596. Codec ID/Info : Picture based subtitle format used on BDs/HD-DVDs
  597. Duration : 2 h 49 min
  598. Bit rate : 54.6 kb/s
  599. Count of elements : 4948
  600. Stream size : 66.2 MiB (0%)
  601. Title : Dutch (Commentary)
  602. Language : Dutch
  603. Default : No
  604. Forced : No
  605.  
  606. Text #38
  607. ID : 41
  608. Format : PGS
  609. Codec ID : S_HDMV/PGS
  610. Codec ID/Info : Picture based subtitle format used on BDs/HD-DVDs
  611. Duration : 2 h 49 min
  612. Bit rate : 41.6 kb/s
  613. Count of elements : 4058
  614. Stream size : 50.5 MiB (0%)
  615. Title : Finnish (Commentary)
  616. Language : Finnish
  617. Default : No
  618. Forced : No
  619.  
  620. Text #39
  621. ID : 42
  622. Format : PGS
  623. Codec ID : S_HDMV/PGS
  624. Codec ID/Info : Picture based subtitle format used on BDs/HD-DVDs
  625. Duration : 2 h 49 min
  626. Bit rate : 53.7 kb/s
  627. Count of elements : 5188
  628. Stream size : 65.2 MiB (0%)
  629. Title : French (Commentary)
  630. Language : French
  631. Default : No
  632. Forced : No
  633.  
  634. Text #40
  635. ID : 43
  636. Format : PGS
  637. Codec ID : S_HDMV/PGS
  638. Codec ID/Info : Picture based subtitle format used on BDs/HD-DVDs
  639. Duration : 2 h 49 min
  640. Bit rate : 55.7 kb/s
  641. Count of elements : 5276
  642. Stream size : 67.7 MiB (0%)
  643. Title : German (Commentary)
  644. Language : German
  645. Default : No
  646. Forced : No
  647.  
  648. Text #41
  649. ID : 44
  650. Format : PGS
  651. Codec ID : S_HDMV/PGS
  652. Codec ID/Info : Picture based subtitle format used on BDs/HD-DVDs
  653. Duration : 2 h 49 min
  654. Bit rate : 53.8 kb/s
  655. Count of elements : 5224
  656. Stream size : 65.3 MiB (0%)
  657. Title : Italian (Commentary)
  658. Language : Italian
  659. Default : No
  660. Forced : No
  661.  
  662. Text #42
  663. ID : 45
  664. Format : PGS
  665. Codec ID : S_HDMV/PGS
  666. Codec ID/Info : Picture based subtitle format used on BDs/HD-DVDs
  667. Duration : 2 h 49 min
  668. Bit rate : 37.6 kb/s
  669. Count of elements : 5224
  670. Stream size : 45.7 MiB (0%)
  671. Title : Korean (Commentary)
  672. Language : Korean
  673. Default : No
  674. Forced : No
  675.  
  676. Text #43
  677. ID : 46
  678. Format : PGS
  679. Codec ID : S_HDMV/PGS
  680. Codec ID/Info : Picture based subtitle format used on BDs/HD-DVDs
  681. Duration : 2 h 49 min
  682. Bit rate : 43.3 kb/s
  683. Count of elements : 5246
  684. Stream size : 52.6 MiB (0%)
  685. Title : Norwegian (Commentary)
  686. Language : Norwegian
  687. Default : No
  688. Forced : No
  689.  
  690. Text #44
  691. ID : 47
  692. Format : PGS
  693. Codec ID : S_HDMV/PGS
  694. Codec ID/Info : Picture based subtitle format used on BDs/HD-DVDs
  695. Duration : 2 h 49 min
  696. Bit rate : 50.9 kb/s
  697. Count of elements : 5222
  698. Stream size : 61.8 MiB (0%)
  699. Title : Russian (Commentary)
  700. Language : Russian
  701. Default : No
  702. Forced : No
  703.  
  704. Text #45
  705. ID : 48
  706. Format : PGS
  707. Codec ID : S_HDMV/PGS
  708. Codec ID/Info : Picture based subtitle format used on BDs/HD-DVDs
  709. Duration : 2 h 49 min
  710. Bit rate : 56.0 kb/s
  711. Count of elements : 5514
  712. Stream size : 68.0 MiB (0%)
  713. Title : Spanish (Commentary)
  714. Language : Spanish
  715. Default : No
  716. Forced : No
  717.  
  718. Text #46
  719. ID : 49
  720. Format : PGS
  721. Codec ID : S_HDMV/PGS
  722. Codec ID/Info : Picture based subtitle format used on BDs/HD-DVDs
  723. Duration : 2 h 49 min
  724. Bit rate : 55.4 kb/s
  725. Count of elements : 5242
  726. Stream size : 67.2 MiB (0%)
  727. Title : Swedish (Commentary)
  728. Language : Swedish
  729. Default : No
  730. Forced : No
  731.  
  732. Menu
  733. 00:00:00.000 : en:Main Titles: Melanesia
  734. 00:10:49.440 : en:The Brig
  735. 00:15:54.203 : en:The Closer to Caesar
  736. 00:20:19.427 : en:Charlie Company
  737. 00:25:58.432 : en:Guadalcanal
  738. 00:29:32.813 : en:Witt with the Wounded
  739. 00:38:02.906 : en:Hill 210
  740. 00:41:25.733 : en:Dawn
  741. 00:51:15.614 : en:Staros' Attack
  742. 00:59:58.136 : en:Keck's Mistake
  743. 01:05:15.912 : en:Property (Tella's Death)
  744. 01:11:16.772 : en:Refusing an Order
  745. 01:20:15.060 : en:Tall Visits the Line
  746. 01:26:40.445 : en:The Unguarded Ledge
  747. 01:39:53.154 : en:Welsh and Witt
  748. 01:44:51.410 : en:The Bunker
  749. 01:55:22.249 : en:Gaff and Tall
  750. 02:01:02.630 : en:The Japanese Bivouac
  751. 02:07:31.018 : en:The Mop-Up
  752. 02:14:49.915 : en:Nature's Cruel
  753. 02:23:06.286 : en:Staros Leaves
  754. 02:30:24.265 : en:The Airfield
  755. 02:37:24.435 : en:A Letter
RAW Paste Data