Guest User

[Cleo] Little Busters! E01

a guest
Dec 16th, 2017
122
Never
Not a member of Pastebin yet? Sign Up, it unlocks many cool features!
  1. General
  2. Unique ID : 252375190928647329495628784085553203555 (0xBDDDB1992409CFB68659C91388CD4963)
  3. Complete name : [Cleo]Little_Busters!_-_01_(Dual Audio_10bit_BD720p_x265).mkv
  4. Format : Matroska
  5. Format version : Version 4 / Version 2
  6. File size : 122 MiB
  7. Duration : 23 min 43 s
  8. Overall bit rate : 721 kb/s
  9. Movie name : Encoded By Cleo
  10. Encoded date : UTC 2017-02-09 17:12:46
  11. Writing application : mkvmerge v9.8.0 ('Kuglblids') 64bit
  12. Writing library : libebml v1.3.4 + libmatroska v1.4.5
  13. Attachments : arialbd.ttf / comic.ttf / comicbd.ttf / erasdus0.ttf / FRADM.TTF / jesaya free.ttf / x-files.ttf / 26746.ttf
  14.  
  15. Video
  16. ID : 1
  17. Format : HEVC
  18. Format/Info : High Efficiency Video Coding
  19. Format profile : Main 10@L5@Main
  20. Codec ID : V_MPEGH/ISO/HEVC
  21. Duration : 23 min 41 s
  22. Bit rate : 524 kb/s
  23. Width : 1 280 pixels
  24. Height : 720 pixels
  25. Display aspect ratio : 16:9
  26. Frame rate mode : Constant
  27. Frame rate : 23.976 (24000/1001) FPS
  28. Original frame rate : 23.976 (23976/1000) FPS
  29. Color space : YUV
  30. Chroma subsampling : 4:2:0
  31. Bit depth : 10 bits
  32. Bits/(Pixel*Frame) : 0.024
  33. Stream size : 88.8 MiB (73%)
  34. Writing library : x265 1.6+174-4cccf22b00ee188a:[Windows][GCC 4.9.2][64 bit] 16bpp:Compiling by KG7x [x265.ru]
  35. Encoding settings : wpp / ctu=64 / min-cu-size=8 / max-tu-size=32 / tu-intra-depth=1 / tu-inter-depth=1 / me=1 / subme=2 / merange=57 / no-rect / no-amp / max-merge=2 / temporal-mvp / no-early-skip / rdpenalty=0 / no-tskip / no-tskip-fast / strong-intra-smoothing / no-lossless / no-cu-lossless / no-constrained-intra / no-fast-intra / no-open-gop / no-temporal-layers / interlace=0 / keyint=250 / min-keyint=23 / scenecut=40 / rc-lookahead=20 / lookahead-slices=0 / bframes=4 / bframe-bias=0 / b-adapt=2 / ref=3 / weightp / no-weightb / aq-mode=1 / aq-strength=1.00 / cbqpoffs=0 / crqpoffs=0 / rd=3 / psy-rd=0.30 / rdoq-level=0 / psy-rdoq=0.00 / signhide / deblock / sao / no-sao-non-deblock / b-pyramid / cutree / rc=crf / crf=20.0 / qcomp=0.60 / qpmin=0 / qpmax=51 / qpstep=4 / vbv-maxrate=25000 / vbv-bufsize=25000 / crf-max=0.0 / ipratio=1.40 / pbratio=1.30
  36. Language : English
  37. Default : Yes
  38. Forced : No
  39.  
  40. Audio #1
  41. ID : 2
  42. Format : AAC
  43. Format/Info : Advanced Audio Codec
  44. Format profile : Main
  45. Codec ID : A_AAC-1
  46. Duration : 23 min 43 s
  47. Bit rate : 93.2 kb/s
  48. Channel(s) : 2 channels
  49. Channel positions : Front: L R
  50. Sampling rate : 48.0 kHz
  51. Frame rate : 46.875 FPS (1024 SPF)
  52. Compression mode : Lossy
  53. Stream size : 15.8 MiB (13%)
  54. Language : Japanese
  55. Default : No
  56. Forced : No
  57.  
  58. Audio #2
  59. ID : 3
  60. Format : AAC
  61. Format/Info : Advanced Audio Codec
  62. Format profile : Main
  63. Codec ID : A_AAC-1
  64. Duration : 23 min 43 s
  65. Bit rate : 93.2 kb/s
  66. Channel(s) : 2 channels
  67. Channel positions : Front: L R
  68. Sampling rate : 48.0 kHz
  69. Frame rate : 46.875 FPS (1024 SPF)
  70. Compression mode : Lossy
  71. Stream size : 15.8 MiB (13%)
  72. Language : English
  73. Default : Yes
  74. Forced : No
  75.  
  76. Text #1
  77. ID : 4
  78. Format : ASS
  79. Codec ID : S_TEXT/ASS
  80. Codec ID/Info : Advanced Sub Station Alpha
  81. Duration : 19 min 18 s
  82. Bit rate : 21 b/s
  83. Count of elements : 35
  84. Compression mode : Lossless
  85. Stream size : 2.98 KiB (0%)
  86. Title : English Signs/Songs
  87. Language : English
  88. Default : Yes
  89. Forced : No
  90.  
  91. Text #2
  92. ID : 5
  93. Format : ASS
  94. Codec ID : S_TEXT/ASS
  95. Codec ID/Info : Advanced Sub Station Alpha
  96. Duration : 23 min 2 s
  97. Bit rate : 124 b/s
  98. Count of elements : 391
  99. Compression mode : Lossless
  100. Stream size : 20.9 KiB (0%)
  101. Title : English Subtitles
  102. Language : English
  103. Default : No
  104. Forced : No
RAW Paste Data