mft39anton

Untitled

Feb 23rd, 2013
37
Never
Not a member of Pastebin yet? Sign Up, it unlocks many cool features!
  1. Disc Title: DISC_11
  2. Disc Size: 16 424 011 424 bytes
  3. Protection: AACS
  4. BD-Java: No
  5. BDInfo: 0.5.8
  6.  
  7. Notes:
  8.  
  9. BDINFO HOME:
  10. Cinema Squid
  11. http://www.cinemasquid.com/blu-ray/tools/bdinfo
  12.  
  13. INCLUDES FORUMS REPORT FOR:
  14. AVS Forum Blu-ray Audio and Video Specifications Thread
  15. http://www.avsforum.com/avs-vb/showthread.php?t=1155731
  16.  
  17.  
  18. ********************
  19. PLAYLIST: 00002.MPLS
  20. ********************
  21.  
  22. <--- BEGIN FORUMS PASTE --->
  23. [code]
  24. Total Video
  25. Title Codec Length Movie Size Disc Size Bitrate Bitrate Main Audio Track Secondary Audio Track
  26. ----- ------ ------- -------------- -------------- ------- ------- ------------------ ---------------------
  27. 00002.MPLS AVC 0:28:20 8 433 807 360 16 424 011 424 39,68 35,00 DTS-HD Master 5.1 2213Kbps (48kHz/16-bit)
  28. [/code]
  29.  
  30. [code]
  31.  
  32. DISC INFO:
  33.  
  34. Disc Title: DISC_11
  35. Disc Size: 16 424 011 424 bytes
  36. Protection: AACS
  37. BD-Java: No
  38. BDInfo: 0.5.8
  39.  
  40. PLAYLIST REPORT:
  41.  
  42. Name: 00002.MPLS
  43. Length: 0:28:20.532 (h:m:s.ms)
  44. Size: 8 433 807 360 bytes
  45. Total Bitrate: 39,68 Mbps
  46.  
  47. VIDEO:
  48.  
  49. Codec Bitrate Description
  50. ----- ------- -----------
  51. MPEG-4 AVC Video 34999 kbps 1080i / 29,970 fps / 16:9 / High Profile 4.1
  52.  
  53. AUDIO:
  54.  
  55. Codec Language Bitrate Description
  56. ----- -------- ------- -----------
  57. DTS-HD Master Audio English 2213 kbps 5.1 / 48 kHz / 2213 kbps / 16-bit (DTS Core: 5.1 / 48 kHz / 1509 kbps / 16-bit)
  58. Dolby Digital Audio English 384 kbps 2.0 / 48 kHz / 384 kbps / DN -4dB
  59.  
  60. SUBTITLES:
  61.  
  62. Codec Language Bitrate Description
  63. ----- -------- ------- -----------
  64. Presentation Graphics Chinese 27,648 kbps
  65. Presentation Graphics Chinese 26,448 kbps
  66. Presentation Graphics Chinese 36,442 kbps
  67.  
  68. FILES:
  69.  
  70. Name Time In Length Size Total Bitrate
  71. ---- ------- ------ ---- -------------
  72. 00002.M2TS 0:00:00.000 0:28:20.532 8 433 807 360 39 676
  73.  
  74. CHAPTERS:
  75.  
  76. Number Time In Length Avg Video Rate Max 1-Sec Rate Max 1-Sec Time Max 5-Sec Rate Max 5-Sec Time Max 10Sec Rate Max 10Sec Time Avg Frame Size Max Frame Size Max Frame Time
  77. ------ ------- ------ -------------- -------------- -------------- -------------- -------------- -------------- -------------- -------------- -------------- --------------
  78. 1 0:00:00.000 0:05:52.185 35 021 kbps 42 721 kbps 00:01:36.896 38 286 kbps 00:00:00.600 36 309 kbps 00:00:00.300 146 054 bytes 533 189 bytes 00:00:01.768
  79. 2 0:05:52.185 0:08:22.702 35 002 kbps 43 265 kbps 00:08:52.231 37 247 kbps 00:10:53.652 36 312 kbps 00:08:43.589 145 987 bytes 485 758 bytes 00:12:34.320
  80. 3 0:14:14.887 0:06:30.957 35 002 kbps 41 585 kbps 00:15:02.234 37 355 kbps 00:14:59.965 36 193 kbps 00:14:55.027 145 988 bytes 455 066 bytes 00:14:41.180
  81. 4 0:20:45.844 0:07:34.687 34 974 kbps 43 342 kbps 00:25:19.351 37 726 kbps 00:25:16.181 36 213 kbps 00:25:43.942 145 883 bytes 499 011 bytes 00:22:27.779
  82.  
  83. STREAM DIAGNOSTICS:
  84.  
  85. File PID Type Codec Language Seconds Bitrate Bytes Packets
  86. ---- --- ---- ----- -------- -------------- -------------- ------------- -----
  87. 00002.M2TS 4113 (0x1011) 0x1B AVC 1700,432 35 001 7 439 533 018 40 462 021
  88. 00002.M2TS 4352 (0x1100) 0x86 DTS-HD MA eng (English) 1700,432 2 213 470 402 368 2 821 286
  89. 00002.M2TS 4353 (0x1101) 0x81 AC3 eng (English) 1700,432 384 81 626 112 478 278
  90. 00002.M2TS 4608 (0x1200) 0x90 PGS zho (Chinese) 1700,432 28 5 877 106 32 914
  91. 00002.M2TS 4609 (0x1201) 0x90 PGS zho (Chinese) 1700,432 26 5 622 017 31 527
  92. 00002.M2TS 4610 (0x1202) 0x90 PGS zho (Chinese) 1700,432 36 7 746 248 43 055
  93.  
  94. [/code]
  95. <---- END FORUMS PASTE ---->
  96.  
  97.  
  98. ********************
  99. PLAYLIST: 00005.MPLS
  100. ********************
  101.  
  102. <--- BEGIN FORUMS PASTE --->
  103. [code]
  104. Total Video
  105. Title Codec Length Movie Size Disc Size Bitrate Bitrate Main Audio Track Secondary Audio Track
  106. ----- ------ ------- -------------- -------------- ------- ------- ------------------ ---------------------
  107. 00005.MPLS AVC 0:25:45 7 671 214 080 16 424 011 424 39,71 35,00 DTS-HD Master 5.1 2191Kbps (48kHz/16-bit)
  108. [/code]
  109.  
  110. [code]
  111.  
  112. DISC INFO:
  113.  
  114. Disc Title: DISC_11
  115. Disc Size: 16 424 011 424 bytes
  116. Protection: AACS
  117. BD-Java: No
  118. BDInfo: 0.5.8
  119.  
  120. PLAYLIST REPORT:
  121.  
  122. Name: 00005.MPLS
  123. Length: 0:25:45.543 (h:m:s.ms)
  124. Size: 7 671 214 080 bytes
  125. Total Bitrate: 39,71 Mbps
  126.  
  127. VIDEO:
  128.  
  129. Codec Bitrate Description
  130. ----- ------- -----------
  131. MPEG-4 AVC Video 34999 kbps 1080i / 29,970 fps / 16:9 / High Profile 4.1
  132.  
  133. AUDIO:
  134.  
  135. Codec Language Bitrate Description
  136. ----- -------- ------- -----------
  137. DTS-HD Master Audio English 2191 kbps 5.1 / 48 kHz / 2191 kbps / 16-bit (DTS Core: 5.1 / 48 kHz / 1509 kbps / 16-bit)
  138. Dolby Digital Audio English 384 kbps 2.0 / 48 kHz / 384 kbps / DN -4dB
  139.  
  140. SUBTITLES:
  141.  
  142. Codec Language Bitrate Description
  143. ----- -------- ------- -----------
  144. Presentation Graphics Chinese 41,485 kbps
  145. Presentation Graphics Chinese 39,901 kbps
  146. Presentation Graphics Chinese 59,005 kbps
  147.  
  148. FILES:
  149.  
  150. Name Time In Length Size Total Bitrate
  151. ---- ------- ------ ---- -------------
  152. 00007.M2TS 0:00:00.000 0:25:45.543 7 671 214 080 39 708
  153.  
  154. CHAPTERS:
  155.  
  156. Number Time In Length Avg Video Rate Max 1-Sec Rate Max 1-Sec Time Max 5-Sec Rate Max 5-Sec Time Max 10Sec Rate Max 10Sec Time Avg Frame Size Max Frame Size Max Frame Time
  157. ------ ------- ------ -------------- -------------- -------------- -------------- -------------- -------------- -------------- -------------- -------------- --------------
  158. 1 0:00:00.000 0:06:17.110 35 022 kbps 46 832 kbps 00:03:15.061 38 267 kbps 00:00:00.600 36 698 kbps 00:01:24.451 146 059 bytes 508 328 bytes 00:00:01.768
  159. 2 0:06:17.110 0:03:35.848 34 997 kbps 43 726 kbps 00:07:10.463 37 402 kbps 00:07:24.043 36 144 kbps 00:07:02.121 145 965 bytes 480 829 bytes 00:08:03.015
  160. 3 0:09:52.959 0:04:00.573 35 004 kbps 42 192 kbps 00:09:52.959 37 279 kbps 00:13:19.031 36 082 kbps 00:13:15.861 145 994 bytes 505 687 bytes 00:13:50.362
  161. 4 0:13:53.532 0:03:33.212 35 037 kbps 41 665 kbps 00:17:20.172 37 311 kbps 00:17:20.172 36 358 kbps 00:17:14.433 146 136 bytes 462 100 bytes 00:14:39.511
  162. 5 0:17:26.745 0:08:18.798 34 962 kbps 44 878 kbps 00:23:24.870 37 668 kbps 00:20:32.197 36 282 kbps 00:20:24.823 145 832 bytes 504 035 bytes 00:17:50.369
  163.  
  164. STREAM DIAGNOSTICS:
  165.  
  166. File PID Type Codec Language Seconds Bitrate Bytes Packets
  167. ---- --- ---- ----- -------- -------------- -------------- ------------- -----
  168. 00007.M2TS 4113 (0x1011) 0x1B AVC 1545,411 35 002 6 761 473 428 36 774 365
  169. 00007.M2TS 4352 (0x1100) 0x86 DTS-HD MA eng (English) 1545,411 2 192 423 359 876 2 542 021
  170. 00007.M2TS 4353 (0x1101) 0x81 AC3 eng (English) 1545,411 384 74 184 192 434 673
  171. 00007.M2TS 4608 (0x1200) 0x90 PGS zho (Chinese) 1545,411 41 8 014 550 44 810
  172. 00007.M2TS 4609 (0x1201) 0x90 PGS zho (Chinese) 1545,411 40 7 708 677 43 139
  173. 00007.M2TS 4610 (0x1202) 0x90 PGS zho (Chinese) 1545,411 59 11 399 366 63 403
  174.  
  175. [/code]
  176. <---- END FORUMS PASTE ---->
  177.  
  178.  
  179. ********************
  180. PLAYLIST: 00003.MPLS
  181. ********************
  182.  
  183. <--- BEGIN FORUMS PASTE --->
  184. [code]
  185. Total Video
  186. Title Codec Length Movie Size Disc Size Bitrate Bitrate Main Audio Track Secondary Audio Track
  187. ----- ------ ------- -------------- -------------- ------- ------- ------------------ ---------------------
  188. 00003.MPLS MPEG-2 0:00:49 218 038 272 16 424 011 424 35,32 32,00 LPCM 2.0 1536Kbps (48kHz/16-bit)
  189. [/code]
  190.  
  191. [code]
  192.  
  193. DISC INFO:
  194.  
  195. Disc Title: DISC_11
  196. Disc Size: 16 424 011 424 bytes
  197. Protection: AACS
  198. BD-Java: No
  199. BDInfo: 0.5.8
  200.  
  201. PLAYLIST REPORT:
  202.  
  203. Name: 00003.MPLS
  204. Length: 0:00:49.382 (h:m:s.ms)
  205. Size: 218 038 272 bytes
  206. Total Bitrate: 35,32 Mbps
  207.  
  208. VIDEO:
  209.  
  210. Codec Bitrate Description
  211. ----- ------- -----------
  212. MPEG-2 Video 32000 kbps 1080i / 29,970 fps / 16:9
  213.  
  214. AUDIO:
  215.  
  216. Codec Language Bitrate Description
  217. ----- -------- ------- -----------
  218. LPCM Audio English 1536 kbps 2.0 / 48 kHz / 1536 kbps / 16-bit
  219.  
  220. FILES:
  221.  
  222. Name Time In Length Size Total Bitrate
  223. ---- ------- ------ ---- -------------
  224. 00003.M2TS 0:00:00.000 0:00:49.382 218 038 272 35 322
  225.  
  226. CHAPTERS:
  227.  
  228. Number Time In Length Avg Video Rate Max 1-Sec Rate Max 1-Sec Time Max 5-Sec Rate Max 5-Sec Time Max 10Sec Rate Max 10Sec Time Avg Frame Size Max Frame Size Max Frame Time
  229. ------ ------- ------ -------------- -------------- -------------- -------------- -------------- -------------- -------------- -------------- -------------- --------------
  230. 1 0:00:00.000 0:00:49.382 32 000 kbps 38 082 kbps 00:00:17.951 33 033 kbps 00:00:13.947 32 380 kbps 00:00:28.661 133 467 bytes 575 484 bytes 00:00:23.690
  231.  
  232. STREAM DIAGNOSTICS:
  233.  
  234. File PID Type Codec Language Seconds Bitrate Bytes Packets
  235. ---- --- ---- ----- -------- -------------- -------------- ------------- -----
  236. 00003.M2TS 4113 (0x1011) 0x02 MPEG-2 49,249 32 087 197 530 540 1 074 386
  237. 00003.M2TS 4352 (0x1100) 0x80 LPCM eng (English) 49,249 1 554 9 566 736 59 544
  238.  
  239. [/code]
  240. <---- END FORUMS PASTE ---->
  241.  
  242.  
  243. ********************
  244. PLAYLIST: 00001.MPLS
  245. ********************
  246.  
  247. <--- BEGIN FORUMS PASTE --->
  248. [code]
  249. Total Video
  250. Title Codec Length Movie Size Disc Size Bitrate Bitrate Main Audio Track Secondary Audio Track
  251. ----- ------ ------- -------------- -------------- ------- ------- ------------------ ---------------------
  252. 00001.MPLS AVC 0:00:09 45 213 696 16 424 011 424 36,26 29,76 LPCM 5.1 4608Kbps (48kHz/16-bit)
  253. [/code]
  254.  
  255. [code]
  256.  
  257. DISC INFO:
  258.  
  259. Disc Title: DISC_11
  260. Disc Size: 16 424 011 424 bytes
  261. Protection: AACS
  262. BD-Java: No
  263. BDInfo: 0.5.8
  264.  
  265. PLAYLIST REPORT:
  266.  
  267. Name: 00001.MPLS
  268. Length: 0:00:09.976 (h:m:s.ms)
  269. Size: 45 213 696 bytes
  270. Total Bitrate: 36,26 Mbps
  271.  
  272. VIDEO:
  273.  
  274. Codec Bitrate Description
  275. ----- ------- -----------
  276. MPEG-4 AVC Video 29760 kbps 1080i / 29,970 fps / 16:9 / High Profile 4.1
  277.  
  278. AUDIO:
  279.  
  280. Codec Language Bitrate Description
  281. ----- -------- ------- -----------
  282. LPCM Audio Chinese 4608 kbps 5.1 / 48 kHz / 4608 kbps / 16-bit
  283.  
  284. FILES:
  285.  
  286. Name Time In Length Size Total Bitrate
  287. ---- ------- ------ ---- -------------
  288. 00001.M2TS 0:00:00.000 0:00:09.976 45 213 696 36 256
  289.  
  290. CHAPTERS:
  291.  
  292. Number Time In Length Avg Video Rate Max 1-Sec Rate Max 1-Sec Time Max 5-Sec Rate Max 5-Sec Time Max 10Sec Rate Max 10Sec Time Avg Frame Size Max Frame Size Max Frame Time
  293. ------ ------- ------ -------------- -------------- -------------- -------------- -------------- -------------- -------------- -------------- -------------- --------------
  294. 1 0:00:00.000 0:00:09.976 29 760 kbps 50 980 kbps 00:00:00.667 32 317 kbps 00:00:00.667 0 kbps 00:00:00.000 124 122 bytes 364 560 bytes 00:00:01.101
  295.  
  296. STREAM DIAGNOSTICS:
  297.  
  298. File PID Type Codec Language Seconds Bitrate Bytes Packets
  299. ---- --- ---- ----- -------- -------------- -------------- ------------- -----
  300. 00001.M2TS 4113 (0x1011) 0x1B AVC 9,910 29 960 37 112 572 202 094
  301. 00001.M2TS 4352 (0x1100) 0x80 LPCM zho (Chinese) 9,910 4 805 5 952 576 33 024
  302.  
  303. [/code]
  304. <---- END FORUMS PASTE ---->
  305.  
  306.  
  307. ********************
  308. PLAYLIST: 00000.MPLS
  309. ********************
  310.  
  311. <--- BEGIN FORUMS PASTE --->
  312. [code]
  313. Total Video
  314. Title Codec Length Movie Size Disc Size Bitrate Bitrate Main Audio Track Secondary Audio Track
  315. ----- ------ ------- -------------- -------------- ------- ------- ------------------ ---------------------
  316. 00000.MPLS MPEG-2 0:00:07 36 575 232 16 424 011 424 41,80 39,98
  317. [/code]
  318.  
  319. [code]
  320.  
  321. DISC INFO:
  322.  
  323. Disc Title: DISC_11
  324. Disc Size: 16 424 011 424 bytes
  325. Protection: AACS
  326. BD-Java: No
  327. BDInfo: 0.5.8
  328.  
  329. PLAYLIST REPORT:
  330.  
  331. Name: 00000.MPLS
  332. Length: 0:00:07.000 (h:m:s.ms)
  333. Size: 36 575 232 bytes
  334. Total Bitrate: 41,80 Mbps
  335.  
  336. VIDEO:
  337.  
  338. Codec Bitrate Description
  339. ----- ------- -----------
  340. MPEG-2 Video 39976 kbps 1080p / 24 fps / 16:9
  341.  
  342. FILES:
  343.  
  344. Name Time In Length Size Total Bitrate
  345. ---- ------- ------ ---- -------------
  346. 00000.M2TS 0:00:00.000 0:00:07.000 36 575 232 41 800
  347.  
  348. CHAPTERS:
  349.  
  350. Number Time In Length Avg Video Rate Max 1-Sec Rate Max 1-Sec Time Max 5-Sec Rate Max 5-Sec Time Max 10Sec Rate Max 10Sec Time Avg Frame Size Max Frame Size Max Frame Time
  351. ------ ------- ------ -------------- -------------- -------------- -------------- -------------- -------------- -------------- -------------- -------------- --------------
  352. 1 0:00:00.000 0:00:07.000 39 976 kbps 40 798 kbps 00:00:01.458 40 000 kbps 00:00:01.958 0 kbps 00:00:00.000 208 209 bytes 312 213 bytes 00:00:02.500
  353.  
  354. STREAM DIAGNOSTICS:
  355.  
  356. File PID Type Codec Language Seconds Bitrate Bytes Packets
  357. ---- --- ---- ----- -------- -------------- -------------- ------------- -----
  358. 00000.M2TS 4113 (0x1011) 0x02 MPEG-2 6,875 40 703 34 979 048 190 225
  359.  
  360. [/code]
  361. <---- END FORUMS PASTE ---->
RAW Paste Data