SHARE
TWEET

Untitled

TheRealDudeMe Nov 1st, 2019 125 Never
Not a member of Pastebin yet? Sign Up, it unlocks many cool features!
  1. General
  2. Unique ID                                : 181583741898226754460823217286353604516 (0x889BC1B01DB61542826BF3EC53014FA4)
  3. Complete name                            : The.King.2019.1080p.NF.WEB-DL.DDP5.1.H264-CMRG.mkv
  4. Format                                   : Matroska
  5. Format version                           : Version 4 / Version 2
  6. File size                                : 6.17 GiB
  7. Duration                                 : 2h 20mn
  8. Overall bit rate mode                    : Variable
  9. Overall bit rate                         : 6 291 Kbps
  10. Movie name                               : CMRG
  11. Encoded date                             : UTC 2019-11-01 07:03:00
  12. Writing application                      : mkvmerge v11.0.0 ('Alive') 64bit
  13. Writing library                          : libebml v1.3.4 + libmatroska v1.4.5
  14.  
  15. Video
  16. ID                                       : 1
  17. Format                                   : AVC
  18. Format/Info                              : Advanced Video Codec
  19. Format profile                           : Main@L4
  20. Format settings, CABAC                   : Yes
  21. Format settings, ReFrames                : 3 frames
  22. Codec ID                                 : V_MPEG4/ISO/AVC
  23. Duration                                 : 2h 20mn
  24. Bit rate mode                            : Variable
  25. Bit rate                                 : 5 519 Kbps
  26. Nominal bit rate                         : 5 800 Kbps
  27. Maximum bit rate                         : 8 700 Kbps
  28. Width                                    : 1 920 pixels
  29. Height                                   : 1 080 pixels
  30. Display aspect ratio                     : 16:9
  31. Frame rate mode                          : Constant
  32. Frame rate                               : 24.000 fps
  33. Color space                              : YUV
  34. Chroma subsampling                       : 4:2:0
  35. Bit depth                                : 8 bits
  36. Scan type                                : Progressive
  37. Bits/(Pixel*Frame)                       : 0.111
  38. Stream size                              : 5.42 GiB (88%)
  39. Writing library                          : x264 core 148 r2715 7e75228
  40. Encoding settings                        : cabac=1 / ref=3 / deblock=1:0:0 / analyse=0x1:0x111 / me=umh / subme=10 / psy=1 / psy_rd=1.00:0.00 / mixed_ref=1 / me_range=24 / chroma_me=1 / trellis=2 / 8x8dct=0 / cqm=0 / deadzone=21,11 / fast_pskip=1 / chroma_qp_offset=-2 / threads=8 / lookahead_threads=1 / sliced_threads=0 / nr=0 / decimate=1 / interlaced=0 / bluray_compat=0 / stitchable=1 / constrained_intra=0 / bframes=2 / b_pyramid=0 / b_adapt=2 / b_bias=0 / direct=3 / weightb=1 / open_gop=0 / weightp=2 / keyint=250 / keyint_min=24 / scenecut=0 / intra_refresh=0 / rc_lookahead=48 / rc=2pass / mbtree=1 / bitrate=5800 / ratetol=1.0 / qcomp=0.50 / qpmin=6 / qpmax=51 / qpstep=4 / cplxblur=20.0 / qblur=0.5 / vbv_maxrate=8700 / vbv_bufsize=11600 / nal_hrd=vbr / filler=0 / ip_ratio=1.40 / aq=1:1.00
  41. Default                                  : Yes
  42. Forced                                   : No
  43.  
  44. Audio
  45. ID                                       : 2
  46. Format                                   : E-AC-3
  47. Format/Info                              : Audio Coding 3
  48. Format settings, Endianness              : Big
  49. Codec ID                                 : A_EAC3
  50. Duration                                 : 2h 20mn
  51. Bit rate mode                            : Constant
  52. Bit rate                                 : 768 Kbps
  53. Channel(s)                               : 6 channels
  54. Channel positions                        : Front: L C R, Side: L R, LFE
  55. Sampling rate                            : 48.0 KHz
  56. Frame rate                               : 187.500 fps (256 spf)
  57. Compression mode                         : Lossy
  58. Stream size                              : 772 MiB (12%)
  59. Title                                    : English
  60. Language                                 : English
  61. Default                                  : Yes
  62. Forced                                   : No
  63.  
  64. Text #1
  65. ID                                       : 3
  66. Format                                   : UTF-8
  67. Codec ID                                 : S_TEXT/UTF8
  68. Codec ID/Info                            : UTF-8 Plain Text
  69. Duration                                 : 2h 19mn
  70. Bit rate                                 : 36 bps
  71. Count of elements                        : 1196
  72. Stream size                              : 37.5 KiB (0%)
  73. Title                                    : Castilian
  74. Language                                 : Spanish
  75. Default                                  : No
  76. Forced                                   : No
  77.  
  78. Text #2
  79. ID                                       : 4
  80. Format                                   : UTF-8
  81. Codec ID                                 : S_TEXT/UTF8
  82. Codec ID/Info                            : UTF-8 Plain Text
  83. Duration                                 : 2h 19mn
  84. Bit rate                                 : 36 bps
  85. Count of elements                        : 1178
  86. Stream size                              : 36.8 KiB (0%)
  87. Title                                    : Spanish
  88. Language                                 : Spanish
  89. Default                                  : No
  90. Forced                                   : No
  91.  
  92. Text #3
  93. ID                                       : 5
  94. Format                                   : UTF-8
  95. Codec ID                                 : S_TEXT/UTF8
  96. Codec ID/Info                            : UTF-8 Plain Text
  97. Duration                                 : 2h 19mn
  98. Bit rate                                 : 36 bps
  99. Count of elements                        : 1155
  100. Stream size                              : 37.2 KiB (0%)
  101. Title                                    : French
  102. Language                                 : French
  103. Default                                  : No
  104. Forced                                   : No
  105.  
  106. Text #4
  107. ID                                       : 6
  108. Format                                   : UTF-8
  109. Codec ID                                 : S_TEXT/UTF8
  110. Codec ID/Info                            : UTF-8 Plain Text
  111. Duration                                 : 2h 19mn
  112. Bit rate                                 : 37 bps
  113. Count of elements                        : 1150
  114. Stream size                              : 38.1 KiB (0%)
  115. Title                                    : German
  116. Language                                 : German
  117. Default                                  : No
  118. Forced                                   : No
  119.  
  120. Text #5
  121. ID                                       : 7
  122. Format                                   : UTF-8
  123. Codec ID                                 : S_TEXT/UTF8
  124. Codec ID/Info                            : UTF-8 Plain Text
  125. Duration                                 : 2h 10mn
  126. Bit rate                                 : 40 bps
  127. Count of elements                        : 1185
  128. Stream size                              : 38.3 KiB (0%)
  129. Title                                    : Italian
  130. Language                                 : Italian
  131. Default                                  : No
  132. Forced                                   : No
  133.  
  134. Text #6
  135. ID                                       : 8
  136. Format                                   : UTF-8
  137. Codec ID                                 : S_TEXT/UTF8
  138. Codec ID/Info                            : UTF-8 Plain Text
  139. Duration                                 : 2h 19mn
  140. Bit rate                                 : 37 bps
  141. Count of elements                        : 1175
  142. Stream size                              : 38.3 KiB (0%)
  143. Title                                    : Portuguese
  144. Language                                 : Portuguese
  145. Default                                  : No
  146. Forced                                   : No
  147.  
  148. Text #7
  149. ID                                       : 9
  150. Format                                   : UTF-8
  151. Codec ID                                 : S_TEXT/UTF8
  152. Codec ID/Info                            : UTF-8 Plain Text
  153. Duration                                 : 2h 10mn
  154. Bit rate                                 : 39 bps
  155. Count of elements                        : 1197
  156. Stream size                              : 37.5 KiB (0%)
  157. Title                                    : Brazilian Portuguese
  158. Language                                 : Portuguese
  159. Default                                  : No
  160. Forced                                   : No
  161.  
  162. Text #8
  163. ID                                       : 10
  164. Format                                   : UTF-8
  165. Codec ID                                 : S_TEXT/UTF8
  166. Codec ID/Info                            : UTF-8 Plain Text
  167. Duration                                 : 2h 19mn
  168. Bit rate                                 : 35 bps
  169. Count of elements                        : 1121
  170. Stream size                              : 36.5 KiB (0%)
  171. Title                                    : Polish
  172. Language                                 : Polish
  173. Default                                  : No
  174. Forced                                   : No
  175.  
  176. Text #9
  177. ID                                       : 11
  178. Format                                   : UTF-8
  179. Codec ID                                 : S_TEXT/UTF8
  180. Codec ID/Info                            : UTF-8 Plain Text
  181. Duration                                 : 2h 10mn
  182. Bit rate                                 : 39 bps
  183. Count of elements                        : 1105
  184. Stream size                              : 38.1 KiB (0%)
  185. Title                                    : Turkish
  186. Language                                 : Turkish
  187. Default                                  : No
  188. Forced                                   : No
  189.  
  190. Text #10
  191. ID                                       : 12
  192. Format                                   : UTF-8
  193. Codec ID                                 : S_TEXT/UTF8
  194. Codec ID/Info                            : UTF-8 Plain Text
  195. Duration                                 : 2h 10mn
  196. Bit rate                                 : 40 bps
  197. Count of elements                        : 1205
  198. Stream size                              : 38.8 KiB (0%)
  199. Title                                    : Swedish
  200. Language                                 : Swedish
  201. Default                                  : No
  202. Forced                                   : No
  203.  
  204. Text #11
  205. ID                                       : 13
  206. Format                                   : UTF-8
  207. Codec ID                                 : S_TEXT/UTF8
  208. Codec ID/Info                            : UTF-8 Plain Text
  209. Duration                                 : 2h 10mn
  210. Bit rate                                 : 37 bps
  211. Count of elements                        : 1155
  212. Stream size                              : 36.1 KiB (0%)
  213. Title                                    : Danish
  214. Language                                 : Danish
  215. Default                                  : No
  216. Forced                                   : No
  217.  
  218. Text #12
  219. ID                                       : 14
  220. Format                                   : UTF-8
  221. Codec ID                                 : S_TEXT/UTF8
  222. Codec ID/Info                            : UTF-8 Plain Text
  223. Duration                                 : 2h 10mn
  224. Bit rate                                 : 38 bps
  225. Count of elements                        : 1112
  226. Stream size                              : 36.8 KiB (0%)
  227. Title                                    : Finnish
  228. Language                                 : Finnish
  229. Default                                  : No
  230. Forced                                   : No
  231.  
  232. Text #13
  233. ID                                       : 15
  234. Format                                   : UTF-8
  235. Codec ID                                 : S_TEXT/UTF8
  236. Codec ID/Info                            : UTF-8 Plain Text
  237. Duration                                 : 2h 10mn
  238. Bit rate                                 : 38 bps
  239. Count of elements                        : 1046
  240. Stream size                              : 36.8 KiB (0%)
  241. Title                                    : Dutch
  242. Language                                 : Dutch
  243. Default                                  : No
  244. Forced                                   : No
  245.  
  246. Text #14
  247. ID                                       : 16
  248. Format                                   : UTF-8
  249. Codec ID                                 : S_TEXT/UTF8
  250. Codec ID/Info                            : UTF-8 Plain Text
  251. Duration                                 : 2h 10mn
  252. Bit rate                                 : 40 bps
  253. Count of elements                        : 977
  254. Stream size                              : 39.1 KiB (0%)
  255. Title                                    : Norwegian
  256. Language                                 : Norwegian
  257. Default                                  : No
  258. Forced                                   : No
  259.  
  260. Text #15
  261. ID                                       : 17
  262. Format                                   : UTF-8
  263. Codec ID                                 : S_TEXT/UTF8
  264. Codec ID/Info                            : UTF-8 Plain Text
  265. Duration                                 : 2h 10mn
  266. Bit rate                                 : 63 bps
  267. Count of elements                        : 1192
  268. Stream size                              : 60.8 KiB (0%)
  269. Title                                    : Russian
  270. Language                                 : Russian
  271. Default                                  : No
  272. Forced                                   : No
  273.  
  274. Text #16
  275. ID                                       : 18
  276. Format                                   : UTF-8
  277. Codec ID                                 : S_TEXT/UTF8
  278. Codec ID/Info                            : UTF-8 Plain Text
  279. Duration                                 : 2h 10mn
  280. Bit rate                                 : 38 bps
  281. Count of elements                        : 1234
  282. Stream size                              : 36.4 KiB (0%)
  283. Title                                    : Hungarian
  284. Language                                 : Hungarian
  285. Default                                  : No
  286. Forced                                   : No
  287.  
  288. Text #17
  289. ID                                       : 19
  290. Format                                   : UTF-8
  291. Codec ID                                 : S_TEXT/UTF8
  292. Codec ID/Info                            : UTF-8 Plain Text
  293. Duration                                 : 2h 10mn
  294. Bit rate                                 : 70 bps
  295. Count of elements                        : 1214
  296. Stream size                              : 67.1 KiB (0%)
  297. Title                                    : Greek
  298. Language                                 : Greek
  299. Default                                  : No
  300. Forced                                   : No
  301.  
  302. Text #18
  303. ID                                       : 20
  304. Format                                   : UTF-8
  305. Codec ID                                 : S_TEXT/UTF8
  306. Codec ID/Info                            : UTF-8 Plain Text
  307. Duration                                 : 2h 19mn
  308. Bit rate                                 : 60 bps
  309. Count of elements                        : 1198
  310. Stream size                              : 61.8 KiB (0%)
  311. Title                                    : Hebrew
  312. Language                                 : Hebrew
  313. Default                                  : No
  314. Forced                                   : No
  315.  
  316. Text #19
  317. ID                                       : 21
  318. Format                                   : UTF-8
  319. Codec ID                                 : S_TEXT/UTF8
  320. Codec ID/Info                            : UTF-8 Plain Text
  321. Duration                                 : 2h 10mn
  322. Bit rate                                 : 65 bps
  323. Count of elements                        : 1221
  324. Stream size                              : 63.0 KiB (0%)
  325. Title                                    : Arabic
  326. Language                                 : Arabic
  327. Default                                  : No
  328. Forced                                   : No
  329.  
  330. Text #20
  331. ID                                       : 22
  332. Format                                   : UTF-8
  333. Codec ID                                 : S_TEXT/UTF8
  334. Codec ID/Info                            : UTF-8 Plain Text
  335. Duration                                 : 2h 10mn
  336. Bit rate                                 : 45 bps
  337. Count of elements                        : 1196
  338. Stream size                              : 43.8 KiB (0%)
  339. Title                                    : Romanian
  340. Language                                 : Romanian
  341. Default                                  : No
  342. Forced                                   : No
  343.  
  344. Text #21
  345. ID                                       : 23
  346. Format                                   : UTF-8
  347. Codec ID                                 : S_TEXT/UTF8
  348. Codec ID/Info                            : UTF-8 Plain Text
  349. Duration                                 : 2h 10mn
  350. Bit rate                                 : 37 bps
  351. Count of elements                        : 1217
  352. Stream size                              : 35.9 KiB (0%)
  353. Title                                    : Czech
  354. Language                                 : Czech
  355. Default                                  : No
  356. Forced                                   : No
  357.  
  358. Text #22
  359. ID                                       : 24
  360. Format                                   : UTF-8
  361. Codec ID                                 : S_TEXT/UTF8
  362. Codec ID/Info                            : UTF-8 Plain Text
  363. Duration                                 : 2h 19mn
  364. Bit rate                                 : 102 bps
  365. Count of elements                        : 1234
  366. Stream size                              : 105 KiB (0%)
  367. Title                                    : Hindi
  368. Language                                 : Hindi
  369. Default                                  : No
  370. Forced                                   : No
  371.  
  372. Text #23
  373. ID                                       : 25
  374. Format                                   : UTF-8
  375. Codec ID                                 : S_TEXT/UTF8
  376. Codec ID/Info                            : UTF-8 Plain Text
  377. Duration                                 : 2h 10mn
  378. Bit rate                                 : 42 bps
  379. Count of elements                        : 1231
  380. Stream size                              : 40.6 KiB (0%)
  381. Title                                    : Indonesian
  382. Language                                 : Indonesian
  383. Default                                  : No
  384. Forced                                   : No
  385.  
  386. Text #24
  387. ID                                       : 26
  388. Format                                   : UTF-8
  389. Codec ID                                 : S_TEXT/UTF8
  390. Codec ID/Info                            : UTF-8 Plain Text
  391. Duration                                 : 2h 10mn
  392. Bit rate                                 : 53 bps
  393. Count of elements                        : 1162
  394. Stream size                              : 51.3 KiB (0%)
  395. Title                                    : Vietnamese
  396. Language                                 : Vietnamese
  397. Default                                  : No
  398. Forced                                   : No
  399.  
  400. Text #25
  401. ID                                       : 27
  402. Format                                   : UTF-8
  403. Codec ID                                 : S_TEXT/UTF8
  404. Codec ID/Info                            : UTF-8 Plain Text
  405. Duration                                 : 2h 10mn
  406. Bit rate                                 : 112 bps
  407. Count of elements                        : 1230
  408. Stream size                              : 107 KiB (0%)
  409. Title                                    : Thai
  410. Language                                 : Thai
  411. Default                                  : No
  412. Forced                                   : No
  413.  
  414. Text #26
  415. ID                                       : 28
  416. Format                                   : UTF-8
  417. Codec ID                                 : S_TEXT/UTF8
  418. Codec ID/Info                            : UTF-8 Plain Text
  419. Duration                                 : 2h 19mn
  420. Bit rate                                 : 47 bps
  421. Count of elements                        : 1232
  422. Stream size                              : 48.5 KiB (0%)
  423. Title                                    : Korean
  424. Language                                 : Korean
  425. Default                                  : No
  426. Forced                                   : No
  427.  
  428. Text #27
  429. ID                                       : 29
  430. Format                                   : UTF-8
  431. Codec ID                                 : S_TEXT/UTF8
  432. Codec ID/Info                            : UTF-8 Plain Text
  433. Duration                                 : 2h 10mn
  434. Bit rate                                 : 38 bps
  435. Count of elements                        : 1230
  436. Stream size                              : 36.5 KiB (0%)
  437. Title                                    : Chinese (Simplified)
  438. Language                                 : Chinese
  439. Default                                  : No
  440. Forced                                   : No
  441.  
  442. Text #28
  443. ID                                       : 30
  444. Format                                   : UTF-8
  445. Codec ID                                 : S_TEXT/UTF8
  446. Codec ID/Info                            : UTF-8 Plain Text
  447. Duration                                 : 2h 10mn
  448. Bit rate                                 : 41 bps
  449. Count of elements                        : 1246
  450. Stream size                              : 40.0 KiB (0%)
  451. Title                                    : Chinese (Traditional)
  452. Language                                 : Chinese
  453. Default                                  : No
  454. Forced                                   : No
  455.  
  456. Text #29
  457. ID                                       : 31
  458. Format                                   : UTF-8
  459. Codec ID                                 : S_TEXT/UTF8
  460. Codec ID/Info                            : UTF-8 Plain Text
  461. Duration                                 : 2h 19mn
  462. Bit rate                                 : 32 bps
  463. Count of elements                        : 1061
  464. Stream size                              : 32.8 KiB (0%)
  465. Title                                    : Japanese
  466. Language                                 : Japanese
  467. Default                                  : No
  468. Forced                                   : No
RAW Paste Data
We use cookies for various purposes including analytics. By continuing to use Pastebin, you agree to our use of cookies as described in the Cookies Policy. OK, I Understand
 
Top