G2A Many GEOs
SHARE
TWEET

Untitled

a guest Feb 1st, 2020 137 Never
Not a member of Pastebin yet? Sign Up, it unlocks many cool features!
  1. General
  2. Unique ID: 216772729549810081089592762986919289234 (0xA314E8BA8EEBB4B9A87F15119BB6E192)
  3. Complete name: The.Song.of.Names.2019.720p.WEB-DL.Rus.TeamHD.mkv
  4. Format: Matroska
  5. Format version: Version 4 / Version 2
  6. File size: 3.36 GiB
  7. Duration: 1 h 48 min
  8. Overall bit rate: 4 440 kb/s
  9. Encoded date: UTC 2020-01-31 19:27:51
  10. Writing application: mkvmerge v8.5.1 ('Where you lead I will follow') 64bit
  11. Writing library: libebml v1.3.3 + libmatroska v1.4.4
  12.  
  13. Video
  14. ID: 1
  15. Format: AVC
  16. Format/Info: Advanced Video Codec
  17. Format profile: Main@L3.1
  18. Format settings, CABAC: No
  19. Format settings, ReFrames: 2 frames
  20. Codec ID: V_MPEG4/ISO/AVC
  21. Duration: 1 h 48 min
  22. Bit rate: 4 054 kb/s
  23. Width: 960 pixels
  24. Height: 536 pixels
  25. Display aspect ratio: 2.40:1
  26. Frame rate mode: Constant
  27. Frame rate: 25.000 FPS
  28. Color space: YUV
  29. Chroma subsampling: 4:2:0
  30. Bit depth: 8 bits
  31. Scan type: Progressive
  32. Bits/(Pixel*Frame): 0.315
  33. Stream size: 3.07 GiB (91%)
  34. Title: Main Program
  35. Language: English
  36. Default: Yes
  37. Forced: No
  38. Color range: Limited
  39. Color primaries: BT.709
  40. Transfer characteristics: BT.709
  41. Matrix coefficients: BT.709
  42.  
  43. Audio
  44. ID: 2
  45. Format: AC-3
  46. Format/Info: Audio Coding 3
  47. Mode extension: CM (complete main)
  48. Format settings, Endianness: Big
  49. Codec ID: A_AC3
  50. Duration: 1 h 48 min
  51. Bit rate mode: Constant
  52. Bit rate: 384 kb/s
  53. Channel(s): 6 channels
  54. Channel positions: Front: L C R, Side: L R, LFE
  55. Sampling rate: 48.0 kHz
  56. Frame rate: 31.250 FPS (1536 spf)
  57. Bit depth: 16 bits
  58. Compression mode: Lossy
  59. Stream size: 298 MiB (9%)
  60. Title: Russian DUB from iTunes Russia DD 5.1
  61. Language: Russian
  62. Default: Yes
  63. Forced: No
  64.  
  65. Menu
  66. 00:00:00.000: en:Глава 1
  67. 00:04:53.120: en:Глава 2
  68. 00:13:17.280: en:Глава 3
  69. 00:17:39.160: en:Глава 4
  70. 00:25:41.760: en:Глава 5
  71. 00:30:56.240: en:Глава 6
  72. 00:37:05.760: en:Глава 7
  73. 00:44:21.200: en:Глава 8
  74. 00:50:12.200: en:Глава 9
  75. 00:56:02.480: en:Глава 10
  76. 01:01:50.880: en:Глава 11
  77. 01:06:26.160: en:Глава 12
  78. 01:22:28.520: en:Глава 13
  79. 01:27:07.280: en:Глава 14
  80. 01:36:14.080: en:Глава 15
RAW Paste Data
Ledger Nano X - The secure hardware wallet
We use cookies for various purposes including analytics. By continuing to use Pastebin, you agree to our use of cookies as described in the Cookies Policy. OK, I Understand
Top