Guest User

Untitled

a guest
Aug 30th, 2020
22
Never
Not a member of Pastebin yet? Sign Up, it unlocks many cool features!
  1. General
  2. Unique ID : 307694911893044070003330104075610862776 (0xE77BE26BA54212F5BF2E2B50EF9DB4B8)
  3. Complete name : D:\Video111\Mortal.2020.BDRip.720p.seleZen.mkv
  4. Format : Matroska
  5. Format version : Version 4
  6. File size : 2.96 GiB
  7. Duration : 1 h 40 min
  8. Overall bit rate : 4 224 kb/s
  9. Movie name : Mortal 2020 from селезень
  10. Encoded date : UTC 2020-08-30 10:12:33
  11. Writing application : mkvmerge v40.0.0 ('Old Town Road + Pony') 64-bit
  12. Writing library : libebml v1.3.9 + libmatroska v1.5.2
  13.  
  14. Video
  15. ID : 1
  16. Format : AVC
  17. Format/Info : Advanced Video Codec
  18. Format profile : High@L4.1
  19. Format settings : CABAC / 12 Ref Frames
  20. Format settings, CABAC : Yes
  21. Format settings, Reference : 12 frames
  22. Codec ID : V_MPEG4/ISO/AVC
  23. Duration : 1 h 40 min
  24. Bit rate : 3 198 kb/s
  25. Width : 1 280 pixels
  26. Height : 538 pixels
  27. Display aspect ratio : 2.40:1
  28. Frame rate mode : Constant
  29. Frame rate : 25.000 FPS
  30. Color space : YUV
  31. Chroma subsampling : 4:2:0
  32. Bit depth : 8 bits
  33. Scan type : Progressive
  34. Bits/(Pixel*Frame) : 0.186
  35. Stream size : 2.24 GiB (76%)
  36. Title : Encoded by seleZen
  37. Writing library : x264 core 148 r2705kMod 3f5ed56
  38. Encoding settings : cabac=1 / ref=12 / deblock=1:-2:-2 / analyse=0x3:0x133 / me=umh / subme=10 / psy=1 / fade_compensate=0.00 / psy_rd=1.00:0.00 / mixed_ref=1 / me_range=32 / chroma_me=1 / trellis=2 / 8x8dct=1 / cqm=0 / deadzone=21,11 / fast_pskip=0 / chroma_qp_offset=-2 / threads=17 / lookahead_threads=2 / sliced_threads=0 / nr=0 / decimate=0 / interlaced=0 / bluray_compat=0 / constrained_intra=0 / fgo=0 / bframes=9 / b_pyramid=2 / b_adapt=2 / b_bias=0 / direct=1 / weightb=1 / open_gop=0 / weightp=2 / keyint=250 / keyint_min=25 / scenecut=40 / intra_refresh=0 / rc_lookahead=50 / rc=crf / mbtree=0 / crf=16.8000 / qcomp=0.60 / qpmin=0 / qpmax=51 / qpstep=4 / vbv_maxrate=50000 / vbv_bufsize=62500 / crf_max=0.0 / nal_hrd=none / filler=0 / ip_ratio=1.40 / pb_ratio=1.30 / aq=3:0.80
  39. Language : English
  40. Default : Yes
  41. Forced : No
  42.  
  43. Audio #1
  44. ID : 2
  45. Format : AC-3
  46. Format/Info : Audio Coding 3
  47. Commercial name : Dolby Digital
  48. Codec ID : A_AC3
  49. Duration : 1 h 40 min
  50. Bit rate mode : Constant
  51. Bit rate : 384 kb/s
  52. Channel(s) : 6 channels
  53. Channel layout : L R C LFE Ls Rs
  54. Sampling rate : 48.0 kHz
  55. Frame rate : 31.250 FPS (1536 SPF)
  56. Compression mode : Lossy
  57. Stream size : 276 MiB (9%)
  58. Title : iTunes
  59. Language : Russian
  60. Service kind : Complete Main
  61. Default : Yes
  62. Forced : Yes
  63.  
  64. Audio #2
  65. ID : 3
  66. Format : AC-3
  67. Format/Info : Audio Coding 3
  68. Commercial name : Dolby Digital
  69. Codec ID : A_AC3
  70. Duration : 1 h 40 min
  71. Bit rate mode : Constant
  72. Bit rate : 640 kb/s
  73. Channel(s) : 6 channels
  74. Channel layout : L R C LFE Ls Rs
  75. Sampling rate : 48.0 kHz
  76. Frame rate : 31.250 FPS (1536 SPF)
  77. Compression mode : Lossy
  78. Stream size : 459 MiB (15%)
  79. Title : Original
  80. Language : French
  81. Service kind : Complete Main
  82. Default : No
  83. Forced : No
  84.  
  85. Text #1
  86. ID : 4
  87. Format : UTF-8
  88. Codec ID : S_TEXT/UTF8
  89. Codec ID/Info : UTF-8 Plain Text
  90. Duration : 1 h 32 min
  91. Bit rate : 50 b/s
  92. Count of elements : 540
  93. Stream size : 34.1 KiB (0%)
  94. Title : Full
  95. Language : Russian
  96. Default : No
  97. Forced : No
  98.  
  99. Text #2
  100. ID : 5
  101. Format : UTF-8
  102. Codec ID : S_TEXT/UTF8
  103. Codec ID/Info : UTF-8 Plain Text
  104. Duration : 1 h 33 min
  105. Bit rate : 61 b/s
  106. Count of elements : 735
  107. Stream size : 41.8 KiB (0%)
  108. Title : SDH
  109. Language : Russian
  110. Default : No
  111. Forced : No
  112.  
  113. Text #3
  114. ID : 6
  115. Format : UTF-8
  116. Codec ID : S_TEXT/UTF8
  117. Codec ID/Info : UTF-8 Plain Text
  118. Duration : 1 h 25 min
  119. Bit rate : 30 b/s
  120. Count of elements : 528
  121. Stream size : 18.8 KiB (0%)
  122. Language : English
  123. Default : No
  124. Forced : No
  125.  
  126. Menu
  127. 00:00:00.000 : en:00:00:00.000
  128. 00:11:06.360 : en:00:11:06.360
  129. 00:27:39.200 : en:00:27:39.200
  130. 00:41:14.200 : en:00:41:14.200
  131. 00:49:10.280 : en:00:49:10.280
  132. 01:06:59.440 : en:01:06:59.440
  133. 01:16:53.200 : en:01:16:53.200
  134. 01:33:44.320 : en:01:33:44.320
  135.  
  136.  
RAW Paste Data