iMN0

Mortal.Kombat.2021.1080p.BluRay.REMUX.AVC.Atmos-SNAHP.mkv

Jul 2nd, 2021 (edited)
254
Never
Not a member of Pastebin yet? Sign Up, it unlocks many cool features!
  1. General
  2. Complete name : Mortal.Kombat.2021.1080p.BluRay.REMUX.AVC.Atmos-SNAHP.mkv
  3. Format : Matroska
  4. Format version : Version 4
  5. File size : 25.0 GiB
  6. Duration : 1 h 50 min
  7. Overall bit rate mode : Variable
  8. Overall bit rate : 32.5 Mb/s
  9. Encoded date : UTC 2021-07-02 12:57:28
  10. Writing application : mkvmerge v55.0.0 ('Waiting For Space') 64-bit
  11. Writing library : libebml v1.4.2 + libmatroska v1.6.4
  12.  
  13. Video
  14. ID : 1
  15. Format : AVC
  16. Format/Info : Advanced Video Codec
  17. Format profile : High@L4.1
  18. Format settings : CABAC / 4 Ref Frames
  19. Format settings, CABAC : Yes
  20. Format settings, Reference frames : 4 frames
  21. Codec ID : V_MPEG4/ISO/AVC
  22. Duration : 1 h 50 min
  23. Bit rate mode : Variable
  24. Bit rate : 28.3 Mb/s
  25. Maximum bit rate : 31.0 Mb/s
  26. Width : 1 920 pixels
  27. Height : 1 080 pixels
  28. Display aspect ratio : 16:9
  29. Frame rate mode : Constant
  30. Frame rate : 23.976 (24000/1001) FPS
  31. Color space : YUV
  32. Chroma subsampling : 4:2:0
  33. Bit depth : 8 bits
  34. Scan type : Progressive
  35. Bits/(Pixel*Frame) : 0.569
  36. Stream size : 21.8 GiB (87%)
  37. Language : English
  38. Default : Yes
  39. Forced : No
  40.  
  41. Audio #1
  42. ID : 2
  43. Format : MLP FBA 16-ch
  44. Format/Info : Meridian Lossless Packing FBA with 16-channel presentation
  45. Commercial name : Dolby TrueHD with Dolby Atmos
  46. Codec ID : A_TRUEHD
  47. Duration : 1 h 50 min
  48. Bit rate mode : Variable
  49. Bit rate : 3 449 kb/s
  50. Maximum bit rate : 5 781 kb/s
  51. Channel(s) : 8 channels
  52. Channel layout : L R C LFE Ls Rs Lb Rb
  53. Sampling rate : 48.0 kHz
  54. Frame rate : 1 200.000 FPS (40 SPF)
  55. Compression mode : Lossless
  56. Stream size : 2.65 GiB (11%)
  57. Title : TrueHD Atmos 7.1
  58. Language : English
  59. Default : Yes
  60. Forced : No
  61. Number of dynamic objects : 11
  62. Bed channel count : 1 channel
  63. Bed channel configuration : LFE
  64.  
  65. Audio #2
  66. ID : 3
  67. Format : AC-3
  68. Format/Info : Audio Coding 3
  69. Commercial name : Dolby Digital
  70. Format settings : Dolby Surround EX
  71. Codec ID : A_AC3
  72. Duration : 1 h 50 min
  73. Bit rate mode : Constant
  74. Bit rate : 448 kb/s
  75. Channel(s) : 6 channels
  76. Channel layout : L R C LFE Ls Rs
  77. Sampling rate : 48.0 kHz
  78. Frame rate : 31.250 FPS (1536 SPF)
  79. Compression mode : Lossy
  80. Stream size : 353 MiB (1%)
  81. Title : Compatibility Track
  82. Language : English
  83. Service kind : Complete Main
  84. Default : No
  85. Forced : No
  86.  
  87. Text #1
  88. ID : 4
  89. Format : PGS
  90. Codec ID : S_HDMV/PGS
  91. Codec ID/Info : Picture based subtitle format used on BDs/HD-DVDs
  92. Duration : 1 h 41 min
  93. Bit rate : 28.4 kb/s
  94. Count of elements : 2740
  95. Stream size : 20.6 MiB (0%)
  96. Title : SDH
  97. Language : English
  98. Default : No
  99. Forced : No
  100.  
  101. Text #2
  102. ID : 5
  103. Format : PGS
  104. Codec ID : S_HDMV/PGS
  105. Codec ID/Info : Picture based subtitle format used on BDs/HD-DVDs
  106. Duration : 1 h 48 min
  107. Bit rate : 17.3 kb/s
  108. Count of elements : 1924
  109. Stream size : 13.4 MiB (0%)
  110. Language : French
  111. Default : No
  112. Forced : No
  113.  
  114. Text #3
  115. ID : 6
  116. Format : PGS
  117. Codec ID : S_HDMV/PGS
  118. Codec ID/Info : Picture based subtitle format used on BDs/HD-DVDs
  119. Duration : 1 h 40 min
  120. Bit rate : 29.2 kb/s
  121. Count of elements : 2008
  122. Stream size : 21.0 MiB (0%)
  123. Title : SDH
  124. Language : German
  125. Default : No
  126. Forced : No
  127.  
  128. Text #4
  129. ID : 7
  130. Format : PGS
  131. Codec ID : S_HDMV/PGS
  132. Codec ID/Info : Picture based subtitle format used on BDs/HD-DVDs
  133. Duration : 1 h 49 min
  134. Bit rate : 27.2 kb/s
  135. Count of elements : 2830
  136. Stream size : 21.4 MiB (0%)
  137. Title : SDH
  138. Language : Italian
  139. Default : No
  140. Forced : No
  141.  
  142. Text #5
  143. ID : 8
  144. Format : PGS
  145. Codec ID : S_HDMV/PGS
  146. Codec ID/Info : Picture based subtitle format used on BDs/HD-DVDs
  147. Duration : 1 h 48 min
  148. Bit rate : 20.5 kb/s
  149. Count of elements : 1906
  150. Stream size : 16.0 MiB (0%)
  151. Title : Castilian
  152. Language : Spanish
  153. Default : No
  154. Forced : No
  155.  
  156. Text #6
  157. ID : 9
  158. Format : PGS
  159. Codec ID : S_HDMV/PGS
  160. Codec ID/Info : Picture based subtitle format used on BDs/HD-DVDs
  161. Duration : 1 h 48 min
  162. Bit rate : 19.9 kb/s
  163. Count of elements : 1862
  164. Stream size : 15.5 MiB (0%)
  165. Language : Dutch
  166. Default : No
  167. Forced : No
  168.  
  169. Text #7
  170. ID : 10
  171. Format : PGS
  172. Codec ID : S_HDMV/PGS
  173. Codec ID/Info : Picture based subtitle format used on BDs/HD-DVDs
  174. Duration : 1 h 37 min
  175. Bit rate : 23.5 kb/s
  176. Count of elements : 1910
  177. Stream size : 16.4 MiB (0%)
  178. Title : Latin American
  179. Language : Spanish
  180. Default : No
  181. Forced : No
  182.  
  183. Text #8
  184. ID : 11
  185. Format : PGS
  186. Codec ID : S_HDMV/PGS
  187. Codec ID/Info : Picture based subtitle format used on BDs/HD-DVDs
  188. Duration : 1 h 48 min
  189. Bit rate : 19.4 kb/s
  190. Count of elements : 1906
  191. Stream size : 15.1 MiB (0%)
  192. Title : Brazilian
  193. Language : Portuguese
  194. Default : No
  195. Forced : No
  196.  
  197. Text #9
  198. ID : 12
  199. Format : PGS
  200. Codec ID : S_HDMV/PGS
  201. Codec ID/Info : Picture based subtitle format used on BDs/HD-DVDs
  202. Duration : 1 h 48 min
  203. Bit rate : 17.7 kb/s
  204. Count of elements : 1246
  205. Stream size : 13.8 MiB (0%)
  206. Language : Danish
  207. Default : No
  208. Forced : No
  209.  
  210. Text #10
  211. ID : 13
  212. Format : PGS
  213. Codec ID : S_HDMV/PGS
  214. Codec ID/Info : Picture based subtitle format used on BDs/HD-DVDs
  215. Duration : 1 h 48 min
  216. Bit rate : 21.4 kb/s
  217. Count of elements : 1928
  218. Stream size : 16.7 MiB (0%)
  219. Language : Finnish
  220. Default : No
  221. Forced : No
  222.  
  223. Text #11
  224. ID : 14
  225. Format : PGS
  226. Codec ID : S_HDMV/PGS
  227. Codec ID/Info : Picture based subtitle format used on BDs/HD-DVDs
  228. Duration : 1 h 48 min
  229. Bit rate : 19.9 kb/s
  230. Count of elements : 1910
  231. Stream size : 15.5 MiB (0%)
  232. Language : Greek
  233. Default : No
  234. Forced : No
  235.  
  236. Text #12
  237. ID : 15
  238. Format : PGS
  239. Codec ID : S_HDMV/PGS
  240. Codec ID/Info : Picture based subtitle format used on BDs/HD-DVDs
  241. Duration : 1 h 48 min
  242. Bit rate : 18.7 kb/s
  243. Count of elements : 1542
  244. Stream size : 14.5 MiB (0%)
  245. Language : Norwegian
  246. Default : No
  247. Forced : No
  248.  
  249. Text #13
  250. ID : 16
  251. Format : PGS
  252. Codec ID : S_HDMV/PGS
  253. Codec ID/Info : Picture based subtitle format used on BDs/HD-DVDs
  254. Duration : 1 h 48 min
  255. Bit rate : 18.1 kb/s
  256. Count of elements : 1486
  257. Stream size : 14.1 MiB (0%)
  258. Language : Swedish
  259. Default : No
  260. Forced : No
  261.  
  262. Menu
  263. 00:00:00.000 : en:Chapter 01
  264. 00:02:34.863 : en:Chapter 02
  265. 00:07:25.403 : en:Chapter 03
  266. 00:12:53.773 : en:Chapter 04
  267. 00:19:13.569 : en:Chapter 05
  268. 00:27:24.893 : en:Chapter 06
  269. 00:34:47.668 : en:Chapter 07
  270. 00:42:14.073 : en:Chapter 08
  271. 00:47:39.606 : en:Chapter 09
  272. 00:56:39.604 : en:Chapter 10
  273. 01:05:49.570 : en:Chapter 11
  274. 01:13:04.213 : en:Chapter 12
  275. 01:19:23.258 : en:Chapter 13
  276. 01:27:17.774 : en:Chapter 14
  277. 01:35:45.030 : en:Chapter 15
  278. 01:38:58.933 : en:Chapter 16
RAW Paste Data