SHARE
TWEET

Sleepaway.Camp.1983.Collectors.Edition.BluRay.1080p.DTS-HD.MA.2.0.AVC.REMUX-FraMeSToR

a guest Jun 11th, 2019 22 Never
Not a member of Pastebin yet? Sign Up, it unlocks many cool features!
  1. General
  2. Unique ID                                : 228445345419499385950754103199797245991 (0xABDCF91FB2CD7F3C801054532A9E7827)
  3. Complete name                            : Sleepaway.Camp.1983.Collectors.Edition.BluRay.1080p.DTS-HD.MA.2.0.AVC.REMUX-FraMeSToR.mkv
  4. Format                                   : Matroska
  5. Format version                           : Version 4
  6. File size                                : 22.1 GiB
  7. Duration                                 : 1 h 24 min
  8. Overall bit rate mode                    : Variable
  9. Overall bit rate                         : 37.2 Mb/s
  10. Movie name                               : Sleepaway Camp Collector's Edition
  11. Encoded date                             : UTC 2017-05-18 09:28:39
  12. Writing application                      : mkvmerge v11.0.0 ('Alive') 64bit
  13. Writing library                          : libebml v1.3.4 + libmatroska v1.4.5
  14.  
  15. Video
  16. ID                                       : 1
  17. Format                                   : AVC
  18. Format/Info                              : Advanced Video Codec
  19. Format profile                           : High@L4.1
  20. Format settings                          : CABAC / 2 Ref Frames
  21. Format settings, CABAC                   : Yes
  22. Format settings, Reference frames        : 2 frames
  23. Format settings, GOP                     : M=1, N=5
  24. Codec ID                                 : V_MPEG4/ISO/AVC
  25. Duration                                 : 1 h 24 min
  26. Bit rate mode                            : Variable
  27. Bit rate                                 : 34.8 Mb/s
  28. Maximum bit rate                         : 38.2 Mb/s
  29. Width                                    : 1 920 pixels
  30. Height                                   : 1 080 pixels
  31. Display aspect ratio                     : 16:9
  32. Frame rate mode                          : Constant
  33. Frame rate                               : 23.976 (24000/1001) FPS
  34. Color space                              : YUV
  35. Chroma subsampling                       : 4:2:0
  36. Bit depth                                : 8 bits
  37. Scan type                                : Progressive
  38. Bits/(Pixel*Frame)                       : 0.700
  39. Stream size                              : 20.6 GiB (93%)
  40. Default                                  : Yes
  41. Forced                                   : No
  42.  
  43. Audio #1
  44. ID                                       : 2
  45. Format                                   : DTS XLL
  46. Format/Info                              : Digital Theater Systems
  47. Commercial name                          : DTS-HD Master Audio
  48. Codec ID                                 : A_DTS
  49. Duration                                 : 1 h 24 min
  50. Bit rate mode                            : Variable
  51. Bit rate                                 : 1 803 kb/s
  52. Channel(s)                               : 2 channels
  53. Channel layout                           : L R
  54. Sampling rate                            : 48.0 kHz
  55. Frame rate                               : 93.750 FPS (512 SPF)
  56. Bit depth                                : 24 bits
  57. Compression mode                         : Lossless
  58. Stream size                              : 1.07 GiB (5%)
  59. Title                                    : DTS-HD MA 2.0
  60. Language                                 : English
  61. Default                                  : Yes
  62. Forced                                   : No
  63.  
  64. Audio #2
  65. ID                                       : 3
  66. Format                                   : AC-3
  67. Format/Info                              : Audio Coding 3
  68. Commercial name                          : Dolby Digital
  69. Codec ID                                 : A_AC3
  70. Duration                                 : 1 h 24 min
  71. Bit rate mode                            : Constant
  72. Bit rate                                 : 192 kb/s
  73. Channel(s)                               : 2 channels
  74. Channel layout                           : L R
  75. Sampling rate                            : 48.0 kHz
  76. Frame rate                               : 31.250 FPS (1536 SPF)
  77. Bit depth                                : 16 bits
  78. Compression mode                         : Lossy
  79. Stream size                              : 117 MiB (1%)
  80. Title                                    : Commentary by Felissa Rose/Jonathan Tiersten
  81. Language                                 : English
  82. Service kind                             : Complete Main
  83. Default                                  : No
  84. Forced                                   : No
  85.  
  86. Audio #3
  87. ID                                       : 4
  88. Format                                   : AC-3
  89. Format/Info                              : Audio Coding 3
  90. Commercial name                          : Dolby Digital
  91. Codec ID                                 : A_AC3
  92. Duration                                 : 1 h 24 min
  93. Bit rate mode                            : Constant
  94. Bit rate                                 : 192 kb/s
  95. Channel(s)                               : 2 channels
  96. Channel layout                           : L R
  97. Sampling rate                            : 48.0 kHz
  98. Frame rate                               : 31.250 FPS (1536 SPF)
  99. Bit depth                                : 16 bits
  100. Compression mode                         : Lossy
  101. Stream size                              : 117 MiB (1%)
  102. Title                                    : Commentary by Jeff Hayes/Robert Hiltzik
  103. Language                                 : English
  104. Service kind                             : Complete Main
  105. Default                                  : No
  106. Forced                                   : No
  107.  
  108. Audio #4
  109. ID                                       : 5
  110. Format                                   : AC-3
  111. Format/Info                              : Audio Coding 3
  112. Commercial name                          : Dolby Digital
  113. Codec ID                                 : A_AC3
  114. Duration                                 : 1 h 24 min
  115. Bit rate mode                            : Constant
  116. Bit rate                                 : 192 kb/s
  117. Channel(s)                               : 2 channels
  118. Channel layout                           : L R
  119. Sampling rate                            : 48.0 kHz
  120. Frame rate                               : 31.250 FPS (1536 SPF)
  121. Bit depth                                : 16 bits
  122. Compression mode                         : Lossy
  123. Stream size                              : 117 MiB (1%)
  124. Title                                    : Commentary by Robert Hiltzik/Felissa Rose
  125. Language                                 : English
  126. Service kind                             : Complete Main
  127. Default                                  : No
  128. Forced                                   : No
  129.  
  130. Text
  131. ID                                       : 6
  132. Format                                   : PGS
  133. Codec ID                                 : S_HDMV/PGS
  134. Codec ID/Info                            : Picture based subtitle format used on BDs/HD-DVDs
  135. Duration                                 : 1 h 20 min
  136. Bit rate                                 : 36.5 kb/s
  137. Count of elements                        : 2066
  138. Stream size                              : 21.0 MiB (0%)
  139. Title                                    : English (SDH)
  140. Language                                 : English
  141. Default                                  : Yes
  142. Forced                                   : No
  143.  
  144. Menu
  145. 00:00:00.000                             : en:00:00:00.000
  146. 00:06:24.175                             : en:00:06:24.175
  147. 00:13:42.947                             : en:00:13:42.947
  148. 00:22:37.356                             : en:00:22:37.356
  149. 00:26:49.358                             : en:00:26:49.358
  150. 00:37:43.553                             : en:00:37:43.553
  151. 00:42:35.887                             : en:00:42:35.887
  152. 00:51:23.289                             : en:00:51:23.289
  153. 00:57:31.698                             : en:00:57:31.698
  154. 01:04:27.864                             : en:01:04:27.864
  155. 01:09:44.514                             : en:01:09:44.514
  156. 01:18:31.707                             : en:01:18:31.707
RAW Paste Data
We use cookies for various purposes including analytics. By continuing to use Pastebin, you agree to our use of cookies as described in the Cookies Policy. OK, I Understand
 
Top