iMN0

Searching.2018.1080p.BluRay.x264-DRONES.mkv

Jul 15th, 2021
81
Never
Not a member of Pastebin yet? Sign Up, it unlocks many cool features!
  1. General
  2. Unique ID : 225170831596716617518594818210046235478 (0xA9665320AF1EB0B89343FCF123B55356)
  3. Complete name : Searching.2018.1080p.BluRay.x264-DRONES.mkv
  4. Format : Matroska
  5. Format version : Version 4
  6. File size : 7.65 GiB
  7. Duration : 1 h 42 min
  8. Overall bit rate : 10.7 Mb/s
  9. Encoded date : UTC 2018-11-22 02:46:15
  10. Writing application : mkvmerge v8.3.0 ('Over the Horizon') 64bit
  11. Writing library : libebml v1.3.1 + libmatroska v1.4.2
  12.  
  13. Video
  14. ID : 1
  15. Format : AVC
  16. Format/Info : Advanced Video Codec
  17. Format profile : High@L4.1
  18. Format settings : CABAC / 4 Ref Frames
  19. Format settings, CABAC : Yes
  20. Format settings, Reference frames : 4 frames
  21. Codec ID : V_MPEG4/ISO/AVC
  22. Duration : 1 h 42 min
  23. Bit rate : 9 191 kb/s
  24. Width : 1 920 pixels
  25. Height : 1 080 pixels
  26. Display aspect ratio : 16:9
  27. Frame rate mode : Constant
  28. Frame rate : 23.976 FPS
  29. Color space : YUV
  30. Chroma subsampling : 4:2:0
  31. Bit depth : 8 bits
  32. Scan type : Progressive
  33. Bits/(Pixel*Frame) : 0.185
  34. Stream size : 6.57 GiB (86%)
  35. Writing library : x264 core 157 r2935 545de2f
  36. Encoding settings : cabac=1 / ref=4 / deblock=1:0:0 / analyse=0x3:0x133 / me=umh / subme=7 / psy=1 / psy_rd=1.00:0.00 / mixed_ref=1 / me_range=16 / chroma_me=1 / trellis=1 / 8x8dct=1 / cqm=0 / deadzone=21,11 / fast_pskip=0 / chroma_qp_offset=-2 / threads=30 / lookahead_threads=5 / sliced_threads=0 / nr=0 / decimate=1 / interlaced=0 / bluray_compat=0 / constrained_intra=0 / bframes=3 / b_pyramid=2 / b_adapt=1 / b_bias=0 / direct=1 / weightb=1 / open_gop=0 / weightp=2 / keyint=250 / keyint_min=23 / scenecut=40 / intra_refresh=0 / rc_lookahead=40 / rc=2pass / mbtree=1 / bitrate=9191 / ratetol=1.0 / qcomp=0.60 / qpmin=0 / qpmax=69 / qpstep=4 / cplxblur=20.0 / qblur=0.5 / ip_ratio=1.40 / aq=1:1.00
  37. Language : English
  38. Default : Yes
  39. Forced : No
  40.  
  41. Audio
  42. ID : 2
  43. Format : DTS
  44. Format/Info : Digital Theater Systems
  45. Codec ID : A_DTS
  46. Duration : 1 h 42 min
  47. Bit rate mode : Constant
  48. Bit rate : 1 509 kb/s
  49. Channel(s) : 6 channels
  50. Channel layout : C L R Ls Rs LFE
  51. Sampling rate : 48.0 kHz
  52. Frame rate : 93.750 FPS (512 SPF)
  53. Bit depth : 24 bits
  54. Compression mode : Lossy
  55. Stream size : 1.08 GiB (14%)
  56. Language : English
  57. Default : Yes
  58. Forced : No
  59.  
  60. Menu
  61. 00:00:00.000 : en:00:00:00.000
  62. 00:06:25.385 : en:00:06:25.385
  63. 00:12:41.636 : en:00:12:41.636
  64. 00:20:13.546 : en:00:20:13.546
  65. 00:23:12.850 : en:00:23:12.850
  66. 00:31:01.651 : en:00:31:01.651
  67. 00:35:49.647 : en:00:35:49.647
  68. 00:39:39.460 : en:00:39:39.460
  69. 00:47:27.845 : en:00:47:27.845
  70. 00:53:31.708 : en:00:53:31.708
  71. 00:59:16.928 : en:00:59:16.928
  72. 01:05:29.217 : en:01:05:29.217
  73. 01:13:07.258 : en:01:13:07.258
  74. 01:21:14.620 : en:01:21:14.620
  75. 01:26:07.204 : en:01:26:07.204
  76. 01:34:32.792 : en:01:34:32.792
RAW Paste Data