SHARE
TWEET

Mediainfo

a guest Oct 21st, 2019 121 Never
Not a member of Pastebin yet? Sign Up, it unlocks many cool features!
  1. Format                      : Matroska
  2. Format version              : Version 4
  3. File size                   : 996 MiB
  4. Duration                    : 1 h 38 min
  5. Overall bit rate            : 1 410 kb/s
  6. Movie name                  :
  7. Encoded date                : UTC 2019-10-21 07:36:25
  8. Writing application         : mkvmerge v28.2.0 ('The Awakening') 64-bit
  9. Writing library             : libebml v1.3.6 + libmatroska v1.4.9
  10.  
  11. Video
  12. ID                          : 1
  13. Format                      : AVC
  14. Format/Info                 : Advanced Video Codec
  15. Format profile              : High@L4.1
  16. Format settings             : CABAC / 5 Ref Frames
  17. Format settings, CABAC      : Yes
  18. Format settings, ReFrames   : 5 frames
  19. Codec ID                    : V_MPEG4/ISO/AVC
  20. Duration                    : 1 h 38 min
  21. Bit rate                    : 1 021 kb/s
  22. Width                       : 1 280 pixels
  23. Height                      : 544 pixels
  24. Display aspect ratio        : 2.35:1
  25. Frame rate mode             : Constant
  26. Frame rate                  : 23.976 (24000/1001) FPS
  27. Color space                 : YUV
  28. Chroma subsampling          : 4:2:0
  29. Bit depth                   : 8 bits
  30. Scan type                   : Progressive
  31. Bits/(Pixel*Frame)          : 0.061
  32. Stream size                 : 721 MiB (72%)
  33. Title                       :
  34. Writing library             : x264 core 146 r2538 121396c
  35. Encoding settings           : cabac=1 / ref=5 / deblock=1:0:0 / analyse=0x3:0x113 / me=umh / subme=10 / psy=1 / psy_rd=1.00:0.00 / mixed_ref=1 / me_range=16 / chroma_me=1 / trellis=2 / 8x8dct=1 / cqm=0 / deadzone=21,11 / fast_pskip=1 / chroma_qp_offset=-2 / threads=6 / lookahead_threads=1 / sliced_threads=0 / nr=0 / decimate=1 / interlaced=0 / bluray_compat=0 / constrained_intra=0 / bframes=3 / b_pyramid=2 / b_adapt=2 / b_bias=0 / direct=3 / weightb=1 / open_gop=0 / weightp=2 / keyint=240 / keyint_min=23 / scenecut=40 / intra_refresh=0 / rc_lookahead=50 / rc=2pass / mbtree=1 / bitrate=1021 / ratetol=1.0 / qcomp=0.60 / qpmin=0 / qpmax=69 / qpstep=4 / cplxblur=20.0 / qblur=0.5 / vbv_maxrate=62500 / vbv_bufsize=78125 / nal_hrd=none / filler=0 / ip_ratio=1.40 / aq=1:1.00
  36. Default                     : Yes
  37. Forced                      : No
  38. Color range                 : Limited
  39. Color primaries             : Generic film
  40. Transfer characteristics    : BT.709
  41. Matrix coefficients         : BT.709
  42.  
  43. Audio #1
  44. ID                          : 2
  45. Format                      : AAC LC
  46. Format/Info                 : Advanced Audio Codec Low Complexity
  47. Codec ID                    : A_AAC-2
  48. Duration                    : 1 h 38 min
  49. Bit rate                    : 196 kb/s
  50. Channel(s)                  : 2 channels
  51. Channel layout              : L R
  52. Sampling rate               : 48.0 kHz
  53. Frame rate                  : 46.875 FPS (1024 SPF)
  54. Compression mode            : Lossy
  55. Delay relative to video     : 13 s 890 ms
  56. Stream size                 : 138 MiB (14%)
  57. Title                       :
  58. Language                    : Hindi
  59. Default                     : Yes
  60. Forced                      : Yes
  61.  
  62. Audio #2
  63. ID                          : 3
  64. Format                      : AAC LC SBR
  65. Format/Info                 : Advanced Audio Codec Low Complexity with Spectral Band Replication
  66. Commercial name             : HE-AAC
  67. Format settings             : Explicit
  68. Codec ID                    : A_AAC-2
  69. Duration                    : 1 h 38 min
  70. Bit rate                    : 192 kb/s
  71. Channel(s)                  : 6 channels
  72. Channel layout              : C L R Ls Rs LFE
  73. Sampling rate               : 48.0 kHz
  74. Frame rate                  : 23.438 FPS (2048 SPF)
  75. Compression mode            : Lossy
  76. Delay relative to video     : 31 ms
  77. Stream size                 : 136 MiB (14%)
  78. Title                       :
  79. Language                    : English
  80. Default                     : No
  81. Forced                      : No
  82.  
  83. Text
  84. ID                          : 4
  85. Format                      : UTF-8
  86. Codec ID                    : S_TEXT/UTF8
  87. Codec ID/Info               : UTF-8 Plain Text
  88. Duration                    : 1 h 30 min
  89. Bit rate                    : 26 b/s
  90. Count of elements           : 547
  91. Stream size                 : 17.7 KiB (0%)
  92. Title                       :
  93. Language                    : English
  94. Default                     : Yes
  95. Forced                      : No
RAW Paste Data
We use cookies for various purposes including analytics. By continuing to use Pastebin, you agree to our use of cookies as described in the Cookies Policy. OK, I Understand
 
Top