Henry_Kr

SWCW-2008

Dec 5th, 2019
184
Never
Not a member of Pastebin yet? Sign Up, it unlocks many cool features!
  1. Video
  2. ID : 1
  3. Format : AVC
  4. Format/Info : Advanced Video Codec
  5. Format profile : High@L4
  6. Format settings : CABAC / 5 Ref Frames
  7. Format settings, CABAC : Yes
  8. Format settings, Reference : 5 frames
  9. Muxing mode : Header stripping
  10. Codec ID : V_MPEG4/ISO/AVC
  11. Duration : 1 h 38 min
  12. Bit rate : 5 717 kb/s
  13. Width : 1 920 pixels
  14. Height : 816 pixels
  15. Display aspect ratio : 2.35:1
  16. Frame rate mode : Constant
  17. Frame rate : 23.976 FPS
  18. Color space : YUV
  19. Chroma subsampling : 4:2:0
  20. Bit depth : 8 bits
  21. Scan type : Progressive
  22. Bits/(Pixel*Frame) : 0.152
  23. Stream size : 3.84 GiB (80%)
  24. Title : Star.Wars.The.Clone.Wars.2008.REPACK.1080p.BluRay.[CartoonNOW]
  25. Language : English
  26. Default : Yes
  27. Forced : No
  28.  
  29. Audio #1
  30. ID : 2
  31. Format : AC-3
  32. Format/Info : Audio Coding 3
  33. Commercial name : Dolby Digital
  34. Muxing mode : Header stripping
  35. Codec ID : A_AC3
  36. Duration : 1 h 38 min
  37. Bit rate mode : Constant
  38. Bit rate : 640 kb/s
  39. Channel(s) : 6 channels
  40. Channel layout : L R C LFE Ls Rs
  41. Sampling rate : 48.0 kHz
  42. Frame rate : 31.250 FPS (1536 SPF)
  43. Compression mode : Lossy
  44. Stream size : 451 MiB (9%)
  45. Title : AC3 - 5.1
  46. Language : Portuguese
  47. Service kind : Complete Main
  48. Default : Yes
  49. Forced : No
  50.  
  51. Audio #2
  52. ID : 3
  53. Format : AC-3
  54. Format/Info : Audio Coding 3
  55. Commercial name : Dolby Digital
  56. Muxing mode : Header stripping
  57. Codec ID : A_AC3
  58. Duration : 1 h 38 min
  59. Bit rate mode : Constant
  60. Bit rate : 640 kb/s
  61. Channel(s) : 6 channels
  62. Channel layout : L R C LFE Ls Rs
  63. Sampling rate : 48.0 kHz
  64. Frame rate : 31.250 FPS (1536 SPF)
  65. Compression mode : Lossy
  66. Stream size : 451 MiB (9%)
  67. Title : AC3 - 5.1
  68. Language : English
  69. Service kind : Complete Main
  70. Default : No
  71. Forced : No
  72.  
  73. Text #1
  74. ID : 4
  75. Format : UTF-8
  76. Codec ID : S_TEXT/UTF8
  77. Codec ID/Info : UTF-8 Plain Text
  78. Title : Forçada
  79. Language : Portuguese
  80. Default : No
  81. Forced : Yes
  82.  
  83. Text #2
  84. ID : 5
  85. Format : UTF-8
  86. Codec ID : S_TEXT/UTF8
  87. Codec ID/Info : UTF-8 Plain Text
  88. Title : Completa
  89. Language : Portuguese
  90. Default : No
  91. Forced : No
RAW Paste Data