SHARE
TWEET

Untitled

Secasa Nov 14th, 2017 3 Never
Not a member of Pastebin yet? Sign Up, it unlocks many cool features!
  1. Format                         : Matroska
  2. Format version                 : Version 4 / Version 2
  3. File size                      : 45.5 GiB
  4. Duration                       : 2 h 9 min
  5. Overall bit rate               : 50.5 Mb/s
  6. Encoded date                   : UTC 2017-11-08 18:14:04
  7. Writing application            : mkvmerge v17.0.0 ('Be Ur Friend') 64-bit
  8. Writing library                : libebml v1.3.5 + libmatroska v1.4.8
  9.  
  10. Video
  11. ID                             : 1
  12. Format                         : HEVC
  13. Format/Info                    : High Efficiency Video Coding
  14. Format profile                 : Main 10@L5.1@High
  15. Codec ID                       : V_MPEGH/ISO/HEVC
  16. Duration                       : 2 h 9 min
  17. Bit rate                       : 47.8 Mb/s
  18. Width                          : 3 840 pixels
  19. Height                         : 2 160 pixels
  20. Display aspect ratio           : 16:9
  21. Frame rate mode                : Constant
  22. Frame rate                     : 23.976 (24000/1001) FPS
  23. Color space                    : YUV
  24. Chroma subsampling             : 4:2:0 (Type 2)
  25. Bit depth                      : 10 bits
  26. Bits/(Pixel*Frame)             : 0.240
  27. Stream size                    : 43.1 GiB (95%)
  28. Default                        : Yes
  29. Forced                         : No
  30. Color range                    : Limited
  31. Color primaries                : BT.2020
  32. Transfer characteristics       : SMPTE ST 2084
  33. Matrix coefficients            : BT.2020 non-constant
  34. Mastering display color primar : R: x=0.680000 y=0.320000, G: x=0.265000 y=0.690000, B: x=0.150000 y=0.060000, White point: x=0.312700 y=0.329000
  35. Mastering display luminance    : min: 0.0050 cd/m2, max: 1000.0000 cd/m2
  36.  
  37. Audio #1
  38. ID                             : 2
  39. Format                         : DTS
  40. Format/Info                    : Digital Theater Systems
  41. Mode                           : 16
  42. Format settings, Endianness    : Big
  43. Codec ID                       : A_DTS
  44. Duration                       : 2 h 9 min
  45. Bit rate mode                  : Constant
  46. Bit rate                       : 1 509 kb/s
  47. Channel(s)                     : 6 channels
  48. Channel positions              : Front: L C R, Side: L R, LFE
  49. Sampling rate                  : 48.0 kHz
  50. Frame rate                     : 93.750 FPS (512 SPF)
  51. Bit depth                      : 24 bits
  52. Compression mode               : Lossy
  53. Stream size                    : 1.36 GiB (3%)
  54. Language                       : Spanish
  55. Default                        : Yes
  56. Forced                         : Yes
  57.  
  58. Audio #2
  59. ID                             : 3
  60. Format                         : AC-3
  61. Format/Info                    : Audio Coding 3
  62. Format settings, Endianness    : Big
  63. Codec ID                       : A_AC3
  64. Duration                       : 2 h 9 min
  65. Bit rate mode                  : Constant
  66. Bit rate                       : 448 kb/s
  67. Channel(s)                     : 6 channels
  68. Channel positions              : Front: L C R, Side: L R, LFE
  69. Sampling rate                  : 48.0 kHz
  70. Frame rate                     : 31.250 FPS (1536 SPF)
  71. Bit depth                      : 16 bits
  72. Compression mode               : Lossy
  73. Stream size                    : 414 MiB (1%)
  74. Language                       : Spanish
  75. Service kind                   : Complete Main
  76. Default                        : No
  77. Forced                         : No
  78.  
  79. Audio #3
  80. ID                             : 4
  81. Format                         : AC-3
  82. Format/Info                    : Audio Coding 3
  83. Format settings, Endianness    : Big
  84. Codec ID                       : A_AC3
  85. Duration                       : 2 h 9 min
  86. Bit rate mode                  : Constant
  87. Bit rate                       : 640 kb/s
  88. Channel(s)                     : 6 channels
  89. Channel positions              : Front: L C R, Side: L R, LFE
  90. Sampling rate                  : 48.0 kHz
  91. Frame rate                     : 31.250 FPS (1536 SPF)
  92. Bit depth                      : 16 bits
  93. Compression mode               : Lossy
  94. Stream size                    : 591 MiB (1%)
  95. Language                       : English
  96. Service kind                   : Complete Main
  97. Default                        : No
  98. Forced                         : No
  99.  
  100. Text #1
  101. ID                             : 5
  102. Format                         : UTF-8
  103. Codec ID                       : S_TEXT/UTF8
  104. Codec ID/Info                  : UTF-8 Plain Text
  105. Duration                       : 1 h 4 min
  106. Bit rate                       : 0 b/s
  107. Count of elements              : 12
  108. Stream size                    : 285 Bytes (0%)
  109. Title                          : Forzados
  110. Language                       : Spanish
  111. Default                        : Yes
  112. Forced                         : Yes
  113.  
  114. Text #2
  115. ID                             : 6
  116. Format                         : UTF-8
  117. Codec ID                       : S_TEXT/UTF8
  118. Codec ID/Info                  : UTF-8 Plain Text
  119. Duration                       : 1 h 57 min
  120. Bit rate                       : 43 b/s
  121. Count of elements              : 1315
  122. Stream size                    : 37.9 KiB (0%)
  123. Language                       : Spanish
  124. Default                        : No
  125. Forced                         : No
  126.  
  127. Text #3
  128. ID                             : 7
  129. Format                         : UTF-8
  130. Codec ID                       : S_TEXT/UTF8
  131. Codec ID/Info                  : UTF-8 Plain Text
  132. Duration                       : 1 h 55 min
  133. Bit rate                       : 45 b/s
  134. Count of elements              : 1435
  135. Stream size                    : 38.2 KiB (0%)
  136. Language                       : English
  137. Default                        : No
  138. Forced                         : No
  139.  
  140. Text #4
  141. ID                             : 8
  142. Format                         : PGS
  143. Codec ID                       : S_HDMV/PGS
  144. Codec ID/Info                  : Picture based subtitle format used on BDs/HD-DVDs
  145. Duration                       : 1 h 2 min
  146. Bit rate                       : 274 b/s
  147. Count of elements              : 16
  148. Stream size                    : 126 KiB (0%)
  149. Title                          : Forzados PGS
  150. Language                       : Spanish
  151. Default                        : No
  152. Forced                         : No
  153.  
  154. Text #5
  155. ID                             : 9
  156. Format                         : PGS
  157. Codec ID                       : S_HDMV/PGS
  158. Codec ID/Info                  : Picture based subtitle format used on BDs/HD-DVDs
  159. Duration                       : 1 h 59 min
  160. Bit rate                       : 28.5 kb/s
  161. Count of elements              : 2638
  162. Stream size                    : 24.3 MiB (0%)
  163. Title                          : Completos PGS
  164. Language                       : Spanish
  165. Default                        : No
  166. Forced                         : No
  167.  
  168. Text #6
  169. ID                             : 10
  170. Format                         : PGS
  171. Codec ID                       : S_HDMV/PGS
  172. Codec ID/Info                  : Picture based subtitle format used on BDs/HD-DVDs
  173. Duration                       : 2 h 7 min
  174. Bit rate                       : 32.8 kb/s
  175. Count of elements              : 3544
  176. Stream size                    : 30.0 MiB (0%)
  177. Language                       : English
  178. Default                        : No
  179. Forced                         : No
  180.  
  181. Menu
  182. 00:00:00.000                   : en:Chapter 1
  183. 00:05:49.557                   : en:Chapter 2
  184. 00:08:34.263                   : en:Chapter 3
  185. 00:13:40.861                   : en:Chapter 4
  186. 00:16:29.196                   : en:Chapter 5
  187. 00:22:33.894                   : en:Chapter 6
  188. 00:25:19.309                   : en:Chapter 7
  189. 00:28:06.142                   : en:Chapter 8
  190. 00:31:41.816                   : en:Chapter 9
  191. 00:33:44.856                   : en:Chapter 10
  192. 00:37:02.094                   : en:Chapter 11
  193. 00:42:27.753                   : en:Chapter 12
  194. 00:49:09.112                   : en:Chapter 13
  195. 00:54:00.320                   : en:Chapter 14
  196. 00:57:19.436                   : en:Chapter 15
  197. 01:00:38.760                   : en:Chapter 16
  198. 01:08:29.980                   : en:Chapter 17
  199. 01:11:57.062                   : en:Chapter 18
  200. 01:16:50.981                   : en:Chapter 19
  201. 01:19:27.512                   : en:Chapter 20
  202. 01:25:04.849                   : en:Chapter 21
  203. 01:27:42.215                   : en:Chapter 22
  204. 01:31:43.831                   : en:Chapter 23
  205. 01:38:22.855                   : en:Chapter 24
  206. 01:42:36.817                   : en:Chapter 25
  207. 01:47:23.603                   : en:Chapter 26
  208. 01:52:58.730                   : en:Chapter 27
  209. 01:59:09.976                   : en:Chapter 28
RAW Paste Data
Top