Guest User

Media Info

a guest
Jan 8th, 2020
124
Never
Not a member of Pastebin yet? Sign Up, it unlocks many cool features!
  1. Format : Matroska
  2. Format version : Version 4
  3. File size : 1.08 GiB
  4. Duration : 1 h 57 min
  5. Overall bit rate : 1 317 kb/s
  6. Movie name : Visit: MkvHub.Com
  7. Encoded date : UTC 2020-01-08 15:38:36
  8. Writing application : mkvmerge v10.0.0 ('To Drown In You') 64bit
  9. Writing library : libebml v1.3.4 + libmatroska v1.4.5
  10.  
  11. Video
  12. ID : 1
  13. Format : AVC
  14. Format/Info : Advanced Video Codec
  15. Format profile : High@L4
  16. Format settings : CABAC / 8 Ref Frames
  17. Format settings, CABAC : Yes
  18. Format settings, Reference : 8 frames
  19. Codec ID : V_MPEG4/ISO/AVC
  20. Duration : 1 h 57 min
  21. Bit rate : 1 102 kb/s
  22. Width : 1 280 pixels
  23. Height : 692 pixels
  24. Display aspect ratio : 1.85:1
  25. Frame rate mode : Constant
  26. Frame rate : 23.976 (24000/1001) FPS
  27. Color space : YUV
  28. Chroma subsampling : 4:2:0
  29. Bit depth : 8 bits
  30. Scan type : Progressive
  31. Bits/(Pixel*Frame) : 0.052
  32. Stream size : 922 MiB (84%)
  33. Title : MkvHub.Com
  34. Writing library : x264 core 155 r2901 7d0ff22
  35. Encoding settings : cabac=1 / ref=8 / deblock=1:-2:-2 / analyse=0x3:0x133 / me=umh / subme=10 / psy=1 / psy_rd=1.00:0.15 / mixed_ref=1 / me_range=32 / chroma_me=1 / trellis=2 / 8x8dct=1 / cqm=0 / deadzone=21,11 / fast_pskip=1 / chroma_qp_offset=-3 / threads=22 / lookahead_threads=1 / sliced_threads=0 / nr=0 / decimate=1 / interlaced=0 / bluray_compat=0 / constrained_intra=0 / bframes=3 / b_pyramid=2 / b_adapt=2 / b_bias=0 / direct=3 / weightb=1 / open_gop=0 / weightp=2 / keyint=250 / keyint_min=23 / scenecut=40 / intra_refresh=0 / rc_lookahead=60 / rc=2pass / mbtree=1 / bitrate=1102 / ratetol=1.0 / qcomp=0.60 / qpmin=0 / qpmax=69 / qpstep=4 / cplxblur=20.0 / qblur=0.5 / vbv_maxrate=15500 / vbv_bufsize=16000 / nal_hrd=none / filler=0 / ip_ratio=1.40 / aq=3:0.80
  36. Default : Yes
  37. Forced : No
  38.  
  39. Audio #1
  40. ID : 2
  41. Format : AAC LC
  42. Format/Info : Advanced Audio Codec Low Complexity
  43. Codec ID : A_AAC-2
  44. Duration : 1 h 57 min
  45. Bit rate : 128 kb/s
  46. Channel(s) : 6 channels
  47. Channel layout : C L R Ls Rs LFE
  48. Sampling rate : 48.0 kHz
  49. Frame rate : 46.875 FPS (1024 SPF)
  50. Compression mode : Lossy
  51. Stream size : 107 MiB (10%)
  52. Title : MkvHub.Com
  53. Language : Hindi
  54. Default : Yes
  55. Forced : Yes
  56.  
  57. Audio #2
  58. ID : 3
  59. Format : AAC LC
  60. Format/Info : Advanced Audio Codec Low Complexity
  61. Codec ID : A_AAC-2
  62. Duration : 1 h 57 min
  63. Bit rate : 84.4 kb/s
  64. Channel(s) : 2 channels
  65. Channel layout : L R
  66. Sampling rate : 48.0 kHz
  67. Frame rate : 46.875 FPS (1024 SPF)
  68. Compression mode : Lossy
  69. Stream size : 70.6 MiB (6%)
  70. Title : MkvHub.Com
  71. Language : English
  72. Default : No
  73. Forced : No
  74.  
  75. Text
  76. ID : 4
  77. Format : UTF-8
  78. Codec ID : S_TEXT/UTF8
  79. Codec ID/Info : UTF-8 Plain Text
  80. Duration : 1 h 47 min
  81. Bit rate : 49 b/s
  82. Count of elements : 1321
  83. Stream size : 38.6 KiB (0%)
  84. Title : MkvHub.Com
  85. Language : English
  86. Default : Yes
  87. Forced : Yes
RAW Paste Data