Advertisement
yushiro

p.La Noche de los Demonios (2009)[BDRemux 1080p].yus

Aug 27th, 2021
158
0
Never
Not a member of Pastebin yet? Sign Up, it unlocks many cool features!
text 5.89 KB | None | 0 0
  1. General
  2. Unique ID : 21969385624017140513988592976817387346 (0x10872656E3602DAE2B34F8FCBA897752)
  3. Complete name : F:\La Noche de los Demonios (2009)[BDRemux 1080p].mkv
  4. Format : Matroska
  5. Format version : Version 4
  6. File size : 18.9 GiB
  7. Duration : 1 h 32 min
  8. Overall bit rate mode : Variable
  9. Overall bit rate : 29.2 Mb/s
  10. Encoded date : UTC 2021-08-07 23:41:40
  11. Writing application : mkvmerge v51.0.0 ('I Wish') 64-bit
  12. Writing library : libebml v1.4.0 + libmatroska v1.6.2
  13.  
  14. Video
  15. ID : 1
  16. ID in the original source m : 4113 (0x1011)
  17. Format : AVC
  18. Format/Info : Advanced Video Codec
  19. Format profile : High@L4.1
  20. Format settings : CABAC / 2 Ref Frames
  21. Format settings, CABAC : Yes
  22. Format settings, Reference : 2 frames
  23. Codec ID : V_MPEG4/ISO/AVC
  24. Duration : 1 h 32 min
  25. Bit rate mode : Variable
  26. Bit rate : 24.5 Mb/s
  27. Maximum bit rate : 35.0 Mb/s
  28. Width : 1 920 pixels
  29. Height : 1 080 pixels
  30. Display aspect ratio : 16:9
  31. Frame rate mode : Constant
  32. Frame rate : 23.976 (24000/1001) FPS
  33. Color space : YUV
  34. Chroma subsampling : 4:2:0
  35. Bit depth : 8 bits
  36. Scan type : Progressive
  37. Bits/(Pixel*Frame) : 0.492
  38. Stream size : 15.8 GiB (84%)
  39. Title : La Noche de los Demonios (2009)[BDRemux 1080p]
  40. Language : Spanish
  41. Default : No
  42. Forced : No
  43. Original source medium : Blu-ray
  44.  
  45. Audio #1
  46. ID : 2
  47. ID in the original source m : 4352 (0x1100)
  48. Format : DTS XLL
  49. Format/Info : Digital Theater Systems
  50. Commercial name : DTS-HD Master Audio
  51. Codec ID : A_DTS
  52. Duration : 1 h 32 min
  53. Bit rate mode : Variable
  54. Bit rate : 1 939 kb/s
  55. Channel(s) : 6 channels
  56. Channel layout : C L R Ls Rs LFE
  57. Sampling rate : 48.0 kHz
  58. Frame rate : 93.750 FPS (512 SPF)
  59. Bit depth : 16 bits
  60. Compression mode : Lossless
  61. Stream size : 1.26 GiB (7%)
  62. Title : Surround 5.1
  63. Language : Spanish
  64. Default : Yes
  65. Forced : No
  66. Original source medium : Blu-ray
  67.  
  68. Audio #2
  69. ID : 3
  70. ID in the original source m : 4352 (0x1100)
  71. Format : DTS
  72. Format/Info : Digital Theater Systems
  73. Codec ID : A_DTS
  74. Duration : 1 h 32 min
  75. Bit rate mode : Constant
  76. Bit rate : 768 kb/s
  77. Channel(s) : 6 channels
  78. Channel layout : C L R Ls Rs LFE
  79. Sampling rate : 48.0 kHz
  80. Frame rate : 93.750 FPS (512 SPF)
  81. Bit depth : 16 bits
  82. Compression mode : Lossy
  83. Stream size : 509 MiB (3%)
  84. Title : Surround 5.1
  85. Language : Spanish
  86. Default : No
  87. Forced : No
  88. Original source medium : Blu-ray
  89.  
  90. Audio #3
  91. ID : 4
  92. ID in the original source m : 4353 (0x1101)
  93. Format : DTS XLL
  94. Format/Info : Digital Theater Systems
  95. Commercial name : DTS-HD Master Audio
  96. Codec ID : A_DTS
  97. Duration : 1 h 32 min
  98. Bit rate mode : Variable
  99. Bit rate : 1 991 kb/s
  100. Channel(s) : 6 channels
  101. Channel layout : C L R Ls Rs LFE
  102. Sampling rate : 48.0 kHz
  103. Frame rate : 93.750 FPS (512 SPF)
  104. Bit depth : 16 bits
  105. Compression mode : Lossless
  106. Stream size : 1.29 GiB (7%)
  107. Title : Surround 5.1
  108. Language : English
  109. Default : No
  110. Forced : No
  111. Original source medium : Blu-ray
  112.  
  113. Text #1
  114. ID : 5
  115. ID in the original source m : 4609 (0x1201)
  116. Format : PGS
  117. Muxing mode : zlib
  118. Codec ID : S_HDMV/PGS
  119. Codec ID/Info : Picture based subtitle format used on BDs/HD-DVDs
  120. Duration : 1 h 32 min
  121. Bit rate : 22.6 kb/s
  122. Count of elements : 2275
  123. Stream size : 15.0 MiB (0%)
  124. Language : Spanish
  125. Default : No
  126. Forced : No
  127. Original source medium : Blu-ray
  128.  
  129. Text #2
  130. ID : 6
  131. ID in the original source m : 4610 (0x1202)
  132. Format : PGS
  133. Muxing mode : zlib
  134. Codec ID : S_HDMV/PGS
  135. Codec ID/Info : Picture based subtitle format used on BDs/HD-DVDs
  136. Duration : 1 h 32 min
  137. Bit rate : 20.0 kb/s
  138. Count of elements : 2043
  139. Stream size : 13.3 MiB (0%)
  140. Language : English
  141. Default : No
  142. Forced : No
  143. Original source medium : Blu-ray
  144.  
  145. Menu
  146. 00:00:00.000 : en:Chapter 01
  147. 00:13:09.997 : en:Chapter 02
  148. 00:25:59.099 : en:Chapter 03
  149. 00:37:43.427 : en:Chapter 04
  150. 00:50:59.097 : en:Chapter 05
  151. 01:04:14.183 : en:Chapter 06
  152. 01:15:54.258 : en:Chapter 07
  153. 01:26:24.387 : en:Chapter 08
  154.  
  155.  
Advertisement
Add Comment
Please, Sign In to add comment
Advertisement