HYBRID_BEING

[TW] Ace Attorney - 03 [720p] [C24E4659].mkv

Jun 20th, 2016
113
Never
Not a member of Pastebin yet? Sign Up, it unlocks many cool features!
  1. General
  2. Unique ID : 210303944498755308993632372326991658953 (0x9E371100761E59E68AA0C7433283FFC9)
  3. Complete name : [TW] Ace Attorney - 03 [720p] [C24E4659].mkv
  4. Format : Matroska
  5. Format version : Version 4 / Version 2
  6. File size : 326 MiB
  7. Duration : 23mn 50s
  8. Overall bit rate : 1 909 Kbps
  9. Encoded date : UTC 2016-04-16 18:19:07
  10. Writing application : mkvmerge v8.6.1 ('Flying') 32bit
  11. Writing library : libebml v1.3.3 + libmatroska v1.4.4
  12. Attachments : 2Peas Brainless_0.ttf / AGENCYB.TTF / AGENCYR.TTF / Arial Rounded MT.ttf / ariblk.ttf / ARLRDBD.TTF / Cartoon_Regular.ttf / FRADM.TTF / MyriadWebPro-Condensed.ttf / youmurdererbb_reg.otf / OpenSans-Semibold.ttf
  13.  
  14. Video
  15. ID : 1
  16. Format : AVC
  17. Format/Info : Advanced Video Codec
  18. Format profile : High@L4
  19. Format settings, CABAC : Yes
  20. Format settings, ReFrames : 6 frames
  21. Codec ID : V_MPEG4/ISO/AVC
  22. Duration : 23mn 46s
  23. Bit rate : 1 776 Kbps
  24. Width : 1 280 pixels
  25. Height : 720 pixels
  26. Display aspect ratio : 16:9
  27. Frame rate mode : Variable
  28. Frame rate : 23.976 (23976/1000) fps
  29. Color space : YUV
  30. Chroma subsampling : 4:2:0
  31. Bit depth : 8 bits
  32. Scan type : Progressive
  33. Bits/(Pixel*Frame) : 0.080
  34. Stream size : 302 MiB (93%)
  35. Writing library : x264 core 120 r2120 0c7dab9
  36. Encoding settings : cabac=1 / ref=6 / deblock=1:1:1 / analyse=0x3:0x113 / me=umh / subme=8 / psy=1 / psy_rd=0.40:0.00 / mixed_ref=1 / me_range=16 / chroma_me=1 / trellis=1 / 8x8dct=1 / cqm=0 / deadzone=21,11 / fast_pskip=1 / chroma_qp_offset=-2 / threads=4 / sliced_threads=0 / nr=0 / decimate=1 / interlaced=0 / bluray_compat=0 / constrained_intra=0 / bframes=3 / b_pyramid=2 / b_adapt=2 / b_bias=0 / direct=3 / weightb=1 / open_gop=0 / weightp=2 / keyint=250 / keyint_min=23 / scenecut=40 / intra_refresh=0 / rc_lookahead=50 / rc=2pass / mbtree=1 / bitrate=1776 / ratetol=1.0 / qcomp=0.60 / qpmin=0 / qpmax=69 / qpstep=4 / cplxblur=20.0 / qblur=0.5 / vbv_maxrate=3552 / vbv_bufsize=8880 / nal_hrd=none / ip_ratio=1.40 / aq=1:0.60
  37. Default : Yes
  38. Forced : No
  39.  
  40. Audio
  41. ID : 2
  42. Format : AAC
  43. Format/Info : Advanced Audio Codec
  44. Format profile : LC
  45. Codec ID : A_AAC
  46. Duration : 23mn 47s
  47. Bit rate : 128 Kbps
  48. Channel(s) : 2 channels
  49. Channel positions : Front: L R
  50. Sampling rate : 44.1 KHz
  51. Frame rate : 43.066 fps (1024 spf)
  52. Compression mode : Lossy
  53. Stream size : 21.8 MiB (7%)
  54. Language : Japanese
  55. Default : Yes
  56. Forced : No
  57.  
  58. Text
  59. ID : 3
  60. Format : ASS
  61. Codec ID : S_TEXT/ASS
  62. Codec ID/Info : Advanced Sub Station Alpha
  63. Duration : 23mn 48s
  64. Bit rate : 227 bps
  65. Count of elements : 567
  66. Compression mode : Lossless
  67. Stream size : 39.7 KiB (0%)
  68. Language : English
  69. Default : Yes
  70. Forced : No
  71.  
  72. Menu
  73. 00:00:00.000 : ja:Prolouge
  74. 00:00:14.973 : ja:OP
  75. 00:01:44.980 : ja:Part 1
  76. 00:12:43.972 : ja:Part 2
  77. 00:21:46.598 : ja:ED
  78. 00:23:17.022 : ja:Preview
RAW Paste Data