SHARE
TWEET

Untitled

mft39anton Jun 20th, 2018 64 Never
Not a member of Pastebin yet? Sign Up, it unlocks many cool features!
  1. Disc Title:     KATHERINE JENKINS
  2. Disc Size:      35,386,881,494 bytes
  3. Protection:     AACS
  4. BD-Java:        No
  5. BDInfo:         0.7.3.3
  6.  
  7. Notes:          
  8.  
  9. BDINFO HOME:
  10.   Cinema Squid
  11.     http://www.cinemasquid.com/blu-ray/tools/bdinfo
  12.  
  13. INCLUDES FORUMS REPORT FOR:
  14.   AVS Forum Blu-ray Audio and Video Specifications Thread
  15.     http://www.avsforum.com/avs-vb/showthread.php?t=1155731
  16.  
  17. WARNING: Report is incomplete because: Scan has not been run.
  18.  
  19. ********************
  20. PLAYLIST: 00000.MPLS
  21. ********************
  22.  
  23. <--- BEGIN FORUMS PASTE --->
  24. [code]
  25.                                                                                                                 Total   Video                                            
  26. Title                                                           Codec   Length  Movie Size      Disc Size       Bitrate Bitrate Main Audio Track                          Secondary Audio Track
  27. -----                                                           ------  ------- --------------  --------------  ------- ------- ------------------                        ---------------------
  28. 00000.MPLS                                                      AVC     1:29:58 0               35,386,881,494  0.00    0.00    LPCM 2.0 1536Kbps (48kHz/16-bit)          DD AC3 5.1 448Kbps
  29. [/code]
  30.  
  31. [code]
  32.  
  33. DISC INFO:
  34.  
  35. Disc Title:     KATHERINE JENKINS
  36. Disc Size:      35,386,881,494 bytes
  37. Protection:     AACS
  38. BD-Java:        No
  39. BDInfo:         0.7.3.3
  40.  
  41. PLAYLIST REPORT:
  42.  
  43. Name:                   00000.MPLS
  44. Length:                 1:29:58.993 (h:m:s.ms)
  45. Size:                   0 bytes
  46. Total Bitrate:          0.00 Mbps
  47.  
  48. VIDEO:
  49.  
  50. Codec                   Bitrate             Description    
  51. -----                   -------             -----------    
  52. MPEG-4 AVC Video        0 kbps              1080i / 29.970 fps / 16:9 / High Profile 4.1
  53.  
  54. AUDIO:
  55.  
  56. Codec                           Language        Bitrate         Description    
  57. -----                           --------        -------         -----------    
  58. LPCM Audio                      English         1536 kbps       2.0 / 48 kHz / 1536 kbps / 16-bit
  59. Dolby Digital Audio             English         448 kbps        5.1 / 48 kHz / 448 kbps / DN -4dB
  60. DTS-HD Master Audio             English         0 kbps          5.1 / 48 kHz / 16-bit (DTS Core: 5.1 / 48 kHz / 1509 kbps / 16-bit / DN -4dB)
  61.  
  62. FILES:
  63.  
  64. Name            Time In         Length          Size            Total Bitrate  
  65. ----            -------         ------          ----            -------------  
  66. 00000.M2TS      0:00:00.000     1:29:57.992     0               0              
  67. 00011.M2TS      1:29:57.992     0:00:01.000     0               0              
  68.  
  69. CHAPTERS:
  70.  
  71. Number          Time In         Length          Avg Video Rate  Max 1-Sec Rate  Max 1-Sec Time  Max 5-Sec Rate  Max 5-Sec Time  Max 10Sec Rate  Max 10Sec Time  Avg Frame Size  Max Frame Size  Max Frame Time  
  72. ------          -------         ------          --------------  --------------  --------------  --------------  --------------  --------------  --------------  --------------  --------------  --------------  
  73. 1               0:00:00.000     0:01:17.977     0 kbps          0 kbps          00:00:00.000    0 kbps          00:00:00.000    0 kbps          00:00:00.000    0 bytes         0 bytes         00:00:00.000    
  74. 2               0:01:17.977     0:03:29.375     0 kbps          0 kbps          00:00:00.000    0 kbps          00:00:00.000    0 kbps          00:00:00.000    0 bytes         0 bytes         00:00:00.000    
  75. 3               0:04:47.353     0:04:58.598     0 kbps          0 kbps          00:00:00.000    0 kbps          00:00:00.000    0 kbps          00:00:00.000    0 bytes         0 bytes         00:00:00.000    
  76. 4               0:09:45.952     0:04:32.271     0 kbps          0 kbps          00:00:00.000    0 kbps          00:00:00.000    0 kbps          00:00:00.000    0 bytes         0 bytes         00:00:00.000    
  77. 5               0:14:18.224     0:06:28.087     0 kbps          0 kbps          00:00:00.000    0 kbps          00:00:00.000    0 kbps          00:00:00.000    0 bytes         0 bytes         00:00:00.000    
  78. 6               0:20:46.311     0:04:02.008     0 kbps          0 kbps          00:00:00.000    0 kbps          00:00:00.000    0 kbps          00:00:00.000    0 bytes         0 bytes         00:00:00.000    
  79. 7               0:24:48.320     0:05:00.366     0 kbps          0 kbps          00:00:00.000    0 kbps          00:00:00.000    0 kbps          00:00:00.000    0 bytes         0 bytes         00:00:00.000    
  80. 8               0:29:48.686     0:04:39.612     0 kbps          0 kbps          00:00:00.000    0 kbps          00:00:00.000    0 kbps          00:00:00.000    0 bytes         0 bytes         00:00:00.000    
  81. 9               0:34:28.299     0:04:33.573     0 kbps          0 kbps          00:00:00.000    0 kbps          00:00:00.000    0 kbps          00:00:00.000    0 bytes         0 bytes         00:00:00.000    
  82. 10              0:39:01.872     0:06:29.255     0 kbps          0 kbps          00:00:00.000    0 kbps          00:00:00.000    0 kbps          00:00:00.000    0 bytes         0 bytes         00:00:00.000    
  83. 11              0:45:31.128     0:04:52.892     0 kbps          0 kbps          00:00:00.000    0 kbps          00:00:00.000    0 kbps          00:00:00.000    0 bytes         0 bytes         00:00:00.000    
  84. 12              0:50:24.020     0:01:36.563     0 kbps          0 kbps          00:00:00.000    0 kbps          00:00:00.000    0 kbps          00:00:00.000    0 bytes         0 bytes         00:00:00.000    
  85. 13              0:52:00.584     0:03:12.358     0 kbps          0 kbps          00:00:00.000    0 kbps          00:00:00.000    0 kbps          00:00:00.000    0 bytes         0 bytes         00:00:00.000    
  86. 14              0:55:12.942     0:02:14.567     0 kbps          0 kbps          00:00:00.000    0 kbps          00:00:00.000    0 kbps          00:00:00.000    0 bytes         0 bytes         00:00:00.000    
  87. 15              0:57:27.510     0:05:02.502     0 kbps          0 kbps          00:00:00.000    0 kbps          00:00:00.000    0 kbps          00:00:00.000    0 bytes         0 bytes         00:00:00.000    
  88. 16              1:02:30.012     0:04:05.712     0 kbps          0 kbps          00:00:00.000    0 kbps          00:00:00.000    0 kbps          00:00:00.000    0 bytes         0 bytes         00:00:00.000    
  89. 17              1:06:35.725     0:04:20.326     0 kbps          0 kbps          00:00:00.000    0 kbps          00:00:00.000    0 kbps          00:00:00.000    0 bytes         0 bytes         00:00:00.000    
  90. 18              1:10:56.051     0:06:25.351     0 kbps          0 kbps          00:00:00.000    0 kbps          00:00:00.000    0 kbps          00:00:00.000    0 bytes         0 bytes         00:00:00.000    
  91. 19              1:17:21.403     0:05:43.810     0 kbps          0 kbps          00:00:00.000    0 kbps          00:00:00.000    0 kbps          00:00:00.000    0 bytes         0 bytes         00:00:00.000    
  92. 20              1:23:05.213     0:06:52.779     0 kbps          0 kbps          00:00:00.000    0 kbps          00:00:00.000    0 kbps          00:00:00.000    0 bytes         0 bytes         00:00:00.000    
  93. 21              1:29:57.992     0:00:01.001     0 kbps          0 kbps          00:00:00.000    0 kbps          00:00:00.000    0 kbps          00:00:00.000    0 bytes         0 bytes         00:00:00.000    
  94.  
  95. STREAM DIAGNOSTICS:
  96.  
  97. File            PID             Type            Codec           Language                Seconds                 Bitrate                 Bytes           Packets        
  98. ----            ---             ----            -----           --------                --------------          --------------          -------------   -----          
  99. 00000.M2TS      4113 (0x1011)   0x1B            AVC                                     0                       0                       0               0              
  100. 00000.M2TS      4352 (0x1100)   0x80            LPCM            eng (English)           0                       0                       0               0              
  101. 00000.M2TS      4353 (0x1101)   0x81            AC3             eng (English)           0                       0                       0               0              
  102. 00000.M2TS      4354 (0x1102)   0x86            DTS-HD MA       eng (English)           0                       0                       0               0              
  103. 00011.M2TS      4113 (0x1011)   0x1B            AVC                                     0                       0                       0               0              
  104.  
  105. [/code]
  106. <---- END FORUMS PASTE ---->
  107.  
  108. QUICK SUMMARY:
  109.  
  110. Disc Title: KATHERINE JENKINS
  111. Disc Size: 35,386,881,494 bytes
  112. Protection: AACS
  113. BD-Java: No
  114. Playlist: 00000.MPLS
  115. Size: 0 bytes
  116. Length: 1:29:58.993
  117. Total Bitrate: 0.00 Mbps
  118. Video: MPEG-4 AVC Video / 0 kbps / 1080i / 29.970 fps / 16:9 / High Profile 4.1
  119. Audio: English / LPCM Audio / 2.0 / 48 kHz / 1536 kbps / 16-bit
  120. Audio: English / Dolby Digital Audio / 5.1 / 48 kHz / 448 kbps / DN -4dB
  121. Audio: English / DTS-HD Master Audio / 5.1 / 48 kHz / 16-bit (DTS Core: 5.1 / 48 kHz / 1509 kbps / 16-bit / DN -4dB)
  122.  
  123.  
  124. ********************
  125. PLAYLIST: 00001.MPLS
  126. ********************
  127.  
  128. <--- BEGIN FORUMS PASTE --->
  129. [code]
  130.                                                                                                                 Total   Video                                            
  131. Title                                                           Codec   Length  Movie Size      Disc Size       Bitrate Bitrate Main Audio Track                          Secondary Audio Track
  132. -----                                                           ------  ------- --------------  --------------  ------- ------- ------------------                        ---------------------
  133. 00001.MPLS                                                      AVC     0:25:33 0               35,386,881,494  0.00    0.00    LPCM 2.0 2304Kbps (48kHz/24-bit)          
  134. [/code]
  135.  
  136. [code]
  137.  
  138. DISC INFO:
  139.  
  140. Disc Title:     KATHERINE JENKINS
  141. Disc Size:      35,386,881,494 bytes
  142. Protection:     AACS
  143. BD-Java:        No
  144. BDInfo:         0.7.3.3
  145.  
  146. PLAYLIST REPORT:
  147.  
  148. Name:                   00001.MPLS
  149. Length:                 0:25:33.965 (h:m:s.ms)
  150. Size:                   0 bytes
  151. Total Bitrate:          0.00 Mbps
  152.  
  153. VIDEO:
  154.  
  155. Codec                   Bitrate             Description    
  156. -----                   -------             -----------    
  157. MPEG-4 AVC Video        0 kbps              1080i / 29.970 fps / 16:9 / High Profile 4.1
  158.  
  159. AUDIO:
  160.  
  161. Codec                           Language        Bitrate         Description    
  162. -----                           --------        -------         -----------    
  163. LPCM Audio                      English         2304 kbps       2.0 / 48 kHz / 2304 kbps / 24-bit
  164.  
  165. SUBTITLES:
  166.  
  167. Codec                           Language        Bitrate         Description    
  168. -----                           --------        -------         -----------    
  169. Presentation Graphics           English         0.000 kbps                      
  170. Presentation Graphics           German          0.000 kbps                      
  171. Presentation Graphics           Spanish         0.000 kbps                      
  172. Presentation Graphics           French          0.000 kbps                      
  173. Presentation Graphics           Italian         0.000 kbps                      
  174. Presentation Graphics           Dutch           0.000 kbps                      
  175. Presentation Graphics           Portuguese      0.000 kbps                      
  176.  
  177. FILES:
  178.  
  179. Name            Time In         Length          Size            Total Bitrate  
  180. ----            -------         ------          ----            -------------  
  181. 00001.M2TS      0:00:00.000     0:25:32.964     0               0              
  182. 00011.M2TS      0:25:32.964     0:00:01.000     0               0              
  183.  
  184. CHAPTERS:
  185.  
  186. Number          Time In         Length          Avg Video Rate  Max 1-Sec Rate  Max 1-Sec Time  Max 5-Sec Rate  Max 5-Sec Time  Max 10Sec Rate  Max 10Sec Time  Avg Frame Size  Max Frame Size  Max Frame Time  
  187. ------          -------         ------          --------------  --------------  --------------  --------------  --------------  --------------  --------------  --------------  --------------  --------------  
  188. 1               0:00:00.000     0:06:49.842     0 kbps          0 kbps          00:00:00.000    0 kbps          00:00:00.000    0 kbps          00:00:00.000    0 bytes         0 bytes         00:00:00.000    
  189. 2               0:06:49.842     0:06:05.598     0 kbps          0 kbps          00:00:00.000    0 kbps          00:00:00.000    0 kbps          00:00:00.000    0 bytes         0 bytes         00:00:00.000    
  190. 3               0:12:55.441     0:12:37.523     0 kbps          0 kbps          00:00:00.000    0 kbps          00:00:00.000    0 kbps          00:00:00.000    0 bytes         0 bytes         00:00:00.000    
  191. 4               0:25:32.964     0:00:01.000     0 kbps          0 kbps          00:00:00.000    0 kbps          00:00:00.000    0 kbps          00:00:00.000    0 bytes         0 bytes         00:00:00.000    
  192.  
  193. STREAM DIAGNOSTICS:
  194.  
  195. File            PID             Type            Codec           Language                Seconds                 Bitrate                 Bytes           Packets        
  196. ----            ---             ----            -----           --------                --------------          --------------          -------------   -----          
  197. 00001.M2TS      4113 (0x1011)   0x1B            AVC                                     0                       0                       0               0              
  198. 00001.M2TS      4352 (0x1100)   0x80            LPCM            eng (English)           0                       0                       0               0              
  199. 00001.M2TS      4608 (0x1200)   0x90            PGS             eng (English)           0                       0                       0               0              
  200. 00001.M2TS      4609 (0x1201)   0x90            PGS             deu (German)            0                       0                       0               0              
  201. 00001.M2TS      4610 (0x1202)   0x90            PGS             spa (Spanish)           0                       0                       0               0              
  202. 00001.M2TS      4611 (0x1203)   0x90            PGS             fra (French)            0                       0                       0               0              
  203. 00001.M2TS      4612 (0x1204)   0x90            PGS             ita (Italian)           0                       0                       0               0              
  204. 00001.M2TS      4613 (0x1205)   0x90            PGS             nld (Dutch)             0                       0                       0               0              
  205. 00001.M2TS      4614 (0x1206)   0x90            PGS             por (Portuguese)        0                       0                       0               0              
  206. 00011.M2TS      4113 (0x1011)   0x1B            AVC                                     0                       0                       0               0              
  207.  
  208. [/code]
  209. <---- END FORUMS PASTE ---->
  210.  
  211. QUICK SUMMARY:
  212.  
  213. Disc Title: KATHERINE JENKINS
  214. Disc Size: 35,386,881,494 bytes
  215. Protection: AACS
  216. BD-Java: No
  217. Playlist: 00001.MPLS
  218. Size: 0 bytes
  219. Length: 0:25:33.965
  220. Total Bitrate: 0.00 Mbps
  221. Video: MPEG-4 AVC Video / 0 kbps / 1080i / 29.970 fps / 16:9 / High Profile 4.1
  222. Audio: English / LPCM Audio / 2.0 / 48 kHz / 2304 kbps / 24-bit
  223. Subtitle: English / 0.000 kbps
  224. Subtitle: German / 0.000 kbps
  225. Subtitle: Spanish / 0.000 kbps
  226. Subtitle: French / 0.000 kbps
  227. Subtitle: Italian / 0.000 kbps
  228. Subtitle: Dutch / 0.000 kbps
  229. Subtitle: Portuguese / 0.000 kbps
  230.  
  231.  
  232. ********************
  233. PLAYLIST: 00002.MPLS
  234. ********************
  235.  
  236. <--- BEGIN FORUMS PASTE --->
  237. [code]
  238.                                                                                                                 Total   Video                                            
  239. Title                                                           Codec   Length  Movie Size      Disc Size       Bitrate Bitrate Main Audio Track                          Secondary Audio Track
  240. -----                                                           ------  ------- --------------  --------------  ------- ------- ------------------                        ---------------------
  241. 00002.MPLS                                                      AVC     0:05:54 0               35,386,881,494  0.00    0.00    LPCM 2.0 2304Kbps (48kHz/24-bit)          
  242. [/code]
  243.  
  244. [code]
  245.  
  246. DISC INFO:
  247.  
  248. Disc Title:     KATHERINE JENKINS
  249. Disc Size:      35,386,881,494 bytes
  250. Protection:     AACS
  251. BD-Java:        No
  252. BDInfo:         0.7.3.3
  253.  
  254. PLAYLIST REPORT:
  255.  
  256. Name:                   00002.MPLS
  257. Length:                 0:05:54.053 (h:m:s.ms)
  258. Size:                   0 bytes
  259. Total Bitrate:          0.00 Mbps
  260.  
  261. VIDEO:
  262.  
  263. Codec                   Bitrate             Description    
  264. -----                   -------             -----------    
  265. MPEG-4 AVC Video        0 kbps              1080i / 29.970 fps / 16:9 / High Profile 4.1
  266.  
  267. AUDIO:
  268.  
  269. Codec                           Language        Bitrate         Description    
  270. -----                           --------        -------         -----------    
  271. LPCM Audio                      English         2304 kbps       2.0 / 48 kHz / 2304 kbps / 24-bit
  272.  
  273. SUBTITLES:
  274.  
  275. Codec                           Language        Bitrate         Description    
  276. -----                           --------        -------         -----------    
  277. Presentation Graphics           English         0.000 kbps                      
  278. Presentation Graphics           German          0.000 kbps                      
  279. Presentation Graphics           Spanish         0.000 kbps                      
  280. Presentation Graphics           French          0.000 kbps                      
  281. Presentation Graphics           Italian         0.000 kbps                      
  282. Presentation Graphics           Dutch           0.000 kbps                      
  283. Presentation Graphics           Portuguese      0.000 kbps                      
  284.  
  285. FILES:
  286.  
  287. Name            Time In         Length          Size            Total Bitrate  
  288. ----            -------         ------          ----            -------------  
  289. 00002.M2TS      0:00:00.000     0:05:53.052     0               0              
  290. 00011.M2TS      0:05:53.052     0:00:01.000     0               0              
  291.  
  292. CHAPTERS:
  293.  
  294. Number          Time In         Length          Avg Video Rate  Max 1-Sec Rate  Max 1-Sec Time  Max 5-Sec Rate  Max 5-Sec Time  Max 10Sec Rate  Max 10Sec Time  Avg Frame Size  Max Frame Size  Max Frame Time  
  295. ------          -------         ------          --------------  --------------  --------------  --------------  --------------  --------------  --------------  --------------  --------------  --------------  
  296. 1               0:00:00.000     0:05:53.052     0 kbps          0 kbps          00:00:00.000    0 kbps          00:00:00.000    0 kbps          00:00:00.000    0 bytes         0 bytes         00:00:00.000    
  297. 2               0:05:53.052     0:00:01.000     0 kbps          0 kbps          00:00:00.000    0 kbps          00:00:00.000    0 kbps          00:00:00.000    0 bytes         0 bytes         00:00:00.000    
  298.  
  299. STREAM DIAGNOSTICS:
  300.  
  301. File            PID             Type            Codec           Language                Seconds                 Bitrate                 Bytes           Packets        
  302. ----            ---             ----            -----           --------                --------------          --------------          -------------   -----          
  303. 00002.M2TS      4113 (0x1011)   0x1B            AVC                                     0                       0                       0               0              
  304. 00002.M2TS      4352 (0x1100)   0x80            LPCM            eng (English)           0                       0                       0               0              
  305. 00002.M2TS      4608 (0x1200)   0x90            PGS             eng (English)           0                       0                       0               0              
  306. 00002.M2TS      4609 (0x1201)   0x90            PGS             deu (German)            0                       0                       0               0              
  307. 00002.M2TS      4610 (0x1202)   0x90            PGS             spa (Spanish)           0                       0                       0               0              
  308. 00002.M2TS      4611 (0x1203)   0x90            PGS             fra (French)            0                       0                       0               0              
  309. 00002.M2TS      4612 (0x1204)   0x90            PGS             ita (Italian)           0                       0                       0               0              
  310. 00002.M2TS      4613 (0x1205)   0x90            PGS             nld (Dutch)             0                       0                       0               0              
  311. 00002.M2TS      4614 (0x1206)   0x90            PGS             por (Portuguese)        0                       0                       0               0              
  312. 00011.M2TS      4113 (0x1011)   0x1B            AVC                                     0                       0                       0               0              
  313.  
  314. [/code]
  315. <---- END FORUMS PASTE ---->
  316.  
  317. QUICK SUMMARY:
  318.  
  319. Disc Title: KATHERINE JENKINS
  320. Disc Size: 35,386,881,494 bytes
  321. Protection: AACS
  322. BD-Java: No
  323. Playlist: 00002.MPLS
  324. Size: 0 bytes
  325. Length: 0:05:54.053
  326. Total Bitrate: 0.00 Mbps
  327. Video: MPEG-4 AVC Video / 0 kbps / 1080i / 29.970 fps / 16:9 / High Profile 4.1
  328. Audio: English / LPCM Audio / 2.0 / 48 kHz / 2304 kbps / 24-bit
  329. Subtitle: English / 0.000 kbps
  330. Subtitle: German / 0.000 kbps
  331. Subtitle: Spanish / 0.000 kbps
  332. Subtitle: French / 0.000 kbps
  333. Subtitle: Italian / 0.000 kbps
  334. Subtitle: Dutch / 0.000 kbps
  335. Subtitle: Portuguese / 0.000 kbps
  336.  
  337.  
  338. ********************
  339. PLAYLIST: 00003.MPLS
  340. ********************
  341.  
  342. <--- BEGIN FORUMS PASTE --->
  343. [code]
  344.                                                                                                                 Total   Video                                            
  345. Title                                                           Codec   Length  Movie Size      Disc Size       Bitrate Bitrate Main Audio Track                          Secondary Audio Track
  346. -----                                                           ------  ------- --------------  --------------  ------- ------- ------------------                        ---------------------
  347. 00003.MPLS                                                      AVC     0:03:04 0               35,386,881,494  0.00    0.00    LPCM 2.0 2304Kbps (48kHz/24-bit)          
  348. [/code]
  349.  
  350. [code]
  351.  
  352. DISC INFO:
  353.  
  354. Disc Title:     KATHERINE JENKINS
  355. Disc Size:      35,386,881,494 bytes
  356. Protection:     AACS
  357. BD-Java:        No
  358. BDInfo:         0.7.3.3
  359.  
  360. PLAYLIST REPORT:
  361.  
  362. Name:                   00003.MPLS
  363. Length:                 0:03:04.017 (h:m:s.ms)
  364. Size:                   0 bytes
  365. Total Bitrate:          0.00 Mbps
  366.  
  367. VIDEO:
  368.  
  369. Codec                   Bitrate             Description    
  370. -----                   -------             -----------    
  371. MPEG-4 AVC Video        0 kbps              1080i / 29.970 fps / 16:9 / High Profile 4.1
  372.  
  373. AUDIO:
  374.  
  375. Codec                           Language        Bitrate         Description    
  376. -----                           --------        -------         -----------    
  377. LPCM Audio                      English         2304 kbps       2.0 / 48 kHz / 2304 kbps / 24-bit
  378.  
  379. FILES:
  380.  
  381. Name            Time In         Length          Size            Total Bitrate  
  382. ----            -------         ------          ----            -------------  
  383. 00003.M2TS      0:00:00.000     0:03:03.016     0               0              
  384. 00011.M2TS      0:03:03.016     0:00:01.000     0               0              
  385.  
  386. CHAPTERS:
  387.  
  388. Number          Time In         Length          Avg Video Rate  Max 1-Sec Rate  Max 1-Sec Time  Max 5-Sec Rate  Max 5-Sec Time  Max 10Sec Rate  Max 10Sec Time  Avg Frame Size  Max Frame Size  Max Frame Time  
  389. ------          -------         ------          --------------  --------------  --------------  --------------  --------------  --------------  --------------  --------------  --------------  --------------  
  390. 1               0:00:00.000     0:03:03.016     0 kbps          0 kbps          00:00:00.000    0 kbps          00:00:00.000    0 kbps          00:00:00.000    0 bytes         0 bytes         00:00:00.000    
  391. 2               0:03:03.016     0:00:01.000     0 kbps          0 kbps          00:00:00.000    0 kbps          00:00:00.000    0 kbps          00:00:00.000    0 bytes         0 bytes         00:00:00.000    
  392.  
  393. STREAM DIAGNOSTICS:
  394.  
  395. File            PID             Type            Codec           Language                Seconds                 Bitrate                 Bytes           Packets        
  396. ----            ---             ----            -----           --------                --------------          --------------          -------------   -----          
  397. 00003.M2TS      4113 (0x1011)   0x1B            AVC                                     0                       0                       0               0              
  398. 00003.M2TS      4352 (0x1100)   0x80            LPCM            eng (English)           0                       0                       0               0              
  399. 00011.M2TS      4113 (0x1011)   0x1B            AVC                                     0                       0                       0               0              
  400.  
  401. [/code]
  402. <---- END FORUMS PASTE ---->
  403.  
  404. QUICK SUMMARY:
  405.  
  406. Disc Title: KATHERINE JENKINS
  407. Disc Size: 35,386,881,494 bytes
  408. Protection: AACS
  409. BD-Java: No
  410. Playlist: 00003.MPLS
  411. Size: 0 bytes
  412. Length: 0:03:04.017
  413. Total Bitrate: 0.00 Mbps
  414. Video: MPEG-4 AVC Video / 0 kbps / 1080i / 29.970 fps / 16:9 / High Profile 4.1
  415. Audio: English / LPCM Audio / 2.0 / 48 kHz / 2304 kbps / 24-bit
RAW Paste Data
We use cookies for various purposes including analytics. By continuing to use Pastebin, you agree to our use of cookies as described in the Cookies Policy. OK, I Understand
 
Top