Guest User

Airplane.II.The.Sequel.1982.BluRay.1080p.DTS-HD.MA.2.0.AVC.REMUX-FraMeSToR

a guest
Jun 17th, 2019
148
Never
Not a member of Pastebin yet? Sign Up, it unlocks many cool features!
  1. General
  2. Complete name                            : Airplane.II.The.Sequel.1982.BluRay.1080p.DTS-HD.MA.2.0.AVC.REMUX-FraMeSToR.mkv
  3. Format                                   : Matroska
  4. Format version                           : Version 4
  5. File size                                : 16.3 GiB
  6. Duration                                 : 1 h 24 min
  7. Overall bit rate mode                    : Variable
  8. Overall bit rate                         : 27.6 Mb/s
  9. Encoded date                             : UTC 2016-01-15 23:03:06
  10. Writing application                      : mkvmerge v8.8.0 ('Wind at my back') 64bit
  11. Writing library                          : libebml v1.3.3 + libmatroska v1.4.4
  12.  
  13. Video
  14. ID                                       : 1
  15. Format                                   : AVC
  16. Format/Info                              : Advanced Video Codec
  17. Format profile                           : High@L4.1
  18. Format settings                          : CABAC / 2 Ref Frames
  19. Format settings, CABAC                   : Yes
  20. Format settings, Reference frames        : 2 frames
  21. Format settings, GOP                     : M=1, N=10
  22. Codec ID                                 : V_MPEG4/ISO/AVC
  23. Duration                                 : 1 h 24 min
  24. Bit rate mode                            : Variable
  25. Bit rate                                 : 25.9 Mb/s
  26. Width                                    : 1 920 pixels
  27. Height                                   : 1 080 pixels
  28. Display aspect ratio                     : 16:9
  29. Frame rate mode                          : Constant
  30. Frame rate                               : 23.976 (24000/1001) FPS
  31. Color space                              : YUV
  32. Chroma subsampling                       : 4:2:0
  33. Bit depth                                : 8 bits
  34. Scan type                                : Progressive
  35. Bits/(Pixel*Frame)                       : 0.522
  36. Stream size                              : 15.3 GiB (94%)
  37. Default                                  : Yes
  38. Forced                                   : No
  39.  
  40. Audio
  41. ID                                       : 2
  42. Format                                   : DTS XLL
  43. Format/Info                              : Digital Theater Systems
  44. Commercial name                          : DTS-HD Master Audio
  45. Codec ID                                 : A_DTS
  46. Duration                                 : 1 h 24 min
  47. Bit rate mode                            : Variable
  48. Bit rate                                 : 1 587 kb/s
  49. Channel(s)                               : 2 channels
  50. Channel layout                           : L R
  51. Sampling rate                            : 48.0 kHz
  52. Frame rate                               : 93.750 FPS (512 SPF)
  53. Bit depth                                : 24 bits
  54. Compression mode                         : Lossless
  55. Stream size                              : 956 MiB (6%)
  56. Title                                    : DTS-HD MA 2.0
  57. Language                                 : English
  58. Default                                  : Yes
  59. Forced                                   : No
  60.  
  61. Text #1
  62. ID                                       : 3
  63. Format                                   : PGS
  64. Codec ID                                 : S_HDMV/PGS
  65. Codec ID/Info                            : Picture based subtitle format used on BDs/HD-DVDs
  66. Duration                                 : 1 h 21 min
  67. Bit rate                                 : 46.5 kb/s
  68. Count of elements                        : 2398
  69. Stream size                              : 27.2 MiB (0%)
  70. Title                                    : English (SDH)
  71. Language                                 : English
  72. Default                                  : Yes
  73. Forced                                   : No
  74.  
  75. Text #2
  76. ID                                       : 4
  77. Format                                   : PGS
  78. Codec ID                                 : S_HDMV/PGS
  79. Codec ID/Info                            : Picture based subtitle format used on BDs/HD-DVDs
  80. Duration                                 : 1 h 23 min
  81. Bit rate                                 : 42.1 kb/s
  82. Count of elements                        : 2306
  83. Stream size                              : 25.1 MiB (0%)
  84. Title                                    : French
  85. Language                                 : French
  86. Default                                  : No
  87. Forced                                   : No
  88.  
  89. Text #3
  90. ID                                       : 5
  91. Format                                   : PGS
  92. Codec ID                                 : S_HDMV/PGS
  93. Codec ID/Info                            : Picture based subtitle format used on BDs/HD-DVDs
  94. Duration                                 : 1 h 23 min
  95. Bit rate                                 : 41.8 kb/s
  96. Count of elements                        : 2288
  97. Stream size                              : 24.9 MiB (0%)
  98. Title                                    : Spanish (Latin American)
  99. Language                                 : Spanish
  100. Default                                  : No
  101. Forced                                   : No
  102.  
  103. Menu
  104. 00:00:00.000                             : en:Maiden Voyage
  105. 00:08:09.488                             : en:A Madman On The Loose
  106. 00:16:36.412                             : en:Oveur, Under
  107. 00:20:01.074                             : en:Liftoff
  108. 00:23:05.717                             : en:Airsick
  109. 00:31:24.132                             : en:Off Course
  110. 00:37:42.510                             : en:Okay, Panic
  111. 00:42:22.039                             : en:McCroskey
  112. 00:45:28.892                             : en:We Need You
  113. 00:49:32.970                             : en:Heating Up
  114. 00:55:07.929                             : en:A Bomb
  115. 01:00:08.438                             : en:Blow The Computer
  116. 01:07:05.730                             : en:Commander Murdock
  117. 01:10:47.826                             : en:Safe Landing
  118. 01:18:27.661                             : en:Thank You For Flying
RAW Paste Data