SHARE
TWEET

The Convent WEB-DL 720p

dirtyharrys May 5th, 2019 63 Never
Not a member of Pastebin yet? Sign Up, it unlocks many cool features!
  1. General
  2. Unique ID                   : 72147938706612574769878733893262987778 (0x36473003CE8E15B7BA89A6BE2A2D5202)
  3. Complete name               : E:\V0VCVGhlQ29udmVudA.mkv
  4. Format                      : Matroska
  5. Format version              : Version 4
  6. File size                   : 1.48 GiB
  7. Duration                    : 1 h 21 min
  8. Overall bit rate            : 2 616 kb/s
  9. Movie name                  : The Convent WEB-DL / The Convent WEB-DL
  10. Encoded date                : UTC 2019-05-05 09:39:10
  11. Writing application         : mkvmerge v30.1.0 ('Forever And More') 32-bit
  12. Writing library             : libebml v1.3.6 + libmatroska v1.4.9
  13. Copyright                   : Movies HDs 2019
  14. ARTIST                      : HarshLearner
  15.  
  16. Video
  17. ID                          : 1
  18. Format                      : AVC
  19. Format/Info                 : Advanced Video Codec
  20. Format profile              : High@L3.1
  21. Format settings             : CABAC / 4 Ref Frames
  22. Format settings, CABAC      : Yes
  23. Format settings, ReFrames   : 4 frames
  24. Codec ID                    : V_MPEG4/ISO/AVC
  25. Duration                    : 1 h 21 min
  26. Bit rate mode               : Constant
  27. Bit rate                    : 2 166 kb/s
  28. Nominal bit rate            : 6 000 kb/s
  29. Width                       : 1 280 pixels
  30. Height                      : 720 pixels
  31. Display aspect ratio        : 16:9
  32. Frame rate mode             : Constant
  33. Frame rate                  : 24.000 FPS
  34. Color space                 : YUV
  35. Chroma subsampling          : 4:2:0
  36. Bit depth                   : 8 bits
  37. Scan type                   : Progressive
  38. Bits/(Pixel*Frame)          : 0.098
  39. Stream size                 : 1.23 GiB (83%)
  40. Title                       : The Convent
  41. Default                     : Yes
  42. Forced                      : No
  43. Color range                 : Limited
  44. Color primaries             : BT.709
  45. Transfer characteristics    : BT.709
  46. Matrix coefficients         : BT.709
  47.  
  48. Audio
  49. ID                          : 2
  50. Format                      : AC-3
  51. Format/Info                 : Audio Coding 3
  52. Commercial name             : Dolby Digital
  53. Codec ID                    : A_AC3
  54. Duration                    : 1 h 21 min
  55. Bit rate mode               : Constant
  56. Bit rate                    : 448 kb/s
  57. Channel(s)                  : 6 channels
  58. Channel layout              : L R C LFE Ls Rs
  59. Sampling rate               : 48.0 kHz
  60. Frame rate                  : 31.250 FPS (1536 SPF)
  61. Bit depth                   : 16 bits
  62. Compression mode            : Lossy
  63. Stream size                 : 260 MiB (17%)
  64. Language                    : English
  65. Service kind                : Complete Main
  66. Default                     : Yes
  67. Forced                      : No
  68.  
  69. Text #1
  70. ID                          : 3
  71. Format                      : UTF-8
  72. Codec ID                    : S_TEXT/UTF8
  73. Codec ID/Info               : UTF-8 Plain Text
  74. Duration                    : 1 h 14 min
  75. Bit rate                    : 41 b/s
  76. Count of elements           : 901
  77. Stream size                 : 22.8 KiB (0%)
  78. Language                    : English
  79. Default                     : No
  80. Forced                      : No
  81.  
  82. Text #2
  83. ID                          : 4
  84. Format                      : UTF-8
  85. Codec ID                    : S_TEXT/UTF8
  86. Codec ID/Info               : UTF-8 Plain Text
  87. Duration                    : 1 h 20 min
  88. Bit rate                    : 52 b/s
  89. Count of elements           : 1284
  90. Stream size                 : 31.0 KiB (0%)
  91. Title                       : SDH
  92. Language                    : English
  93. Default                     : No
  94. Forced                      : No
  95.  
  96. Text #3
  97. ID                          : 5
  98. Format                      : UTF-8
  99. Codec ID                    : S_TEXT/UTF8
  100. Codec ID/Info               : UTF-8 Plain Text
  101. Duration                    : 1 h 14 min
  102. Bit rate                    : 46 b/s
  103. Count of elements           : 898
  104. Stream size                 : 25.4 KiB (0%)
  105. Language                    : Spanish
  106. Default                     : Yes
  107. Forced                      : Yes
RAW Paste Data
We use cookies for various purposes including analytics. By continuing to use Pastebin, you agree to our use of cookies as described in the Cookies Policy. OK, I Understand
 
Top