Advertisement
yushiro

p.king.scorpion.remux.yus

Apr 6th, 2021
81
0
Never
Not a member of Pastebin yet? Sign Up, it unlocks many cool features!
text 6.30 KB | None | 0 0
  1. General
  2. Unique ID : 58704311326778053245395970252061530961 (0x2C2A0A02C723E92EC1361D2D6B93DB51)
  3. Complete name : G:\El Rey Escorpión (2002)[BDRemux 1080p].mkv
  4. Format : Matroska
  5. Format version : Version 4
  6. File size : 19.4 GiB
  7. Duration : 1 h 31 min
  8. Overall bit rate mode : Variable
  9. Overall bit rate : 30.4 Mb/s
  10. Encoded date : UTC 2021-04-06 00:37:08
  11. Writing application : mkvmerge v51.0.0 ('I Wish') 64-bit
  12. Writing library : libebml v1.4.0 + libmatroska v1.6.2
  13.  
  14. Video
  15. ID : 1
  16. ID in the original source m : 4113 (0x1011)
  17. Format : VC-1
  18. Format profile : Advanced@L3
  19. Codec ID : V_MS/VFW/FOURCC / WVC1
  20. Codec ID/Hint : Microsoft
  21. Duration : 1 h 31 min
  22. Bit rate : 23.5 Mb/s
  23. Width : 1 920 pixels
  24. Height : 1 080 pixels
  25. Display aspect ratio : 16:9
  26. Frame rate mode : Constant
  27. Frame rate : 23.976 (24000/1001) FPS
  28. Color space : YUV
  29. Chroma subsampling : 4:2:0
  30. Bit depth : 8 bits
  31. Scan type : Progressive
  32. Compression mode : Lossy
  33. Bits/(Pixel*Frame) : 0.473
  34. Stream size : 15.0 GiB (77%)
  35. Title : El Rey Escorpión (2002)[BDRemux 1080p]
  36. Language : Spanish
  37. Default : No
  38. Forced : No
  39. Original source medium : Blu-ray
  40.  
  41. Audio #1
  42. ID : 2
  43. ID in the original source m : 4357 (0x1105)
  44. Format : DTS
  45. Format/Info : Digital Theater Systems
  46. Codec ID : A_DTS
  47. Duration : 1 h 31 min
  48. Bit rate mode : Constant
  49. Bit rate : 768 kb/s
  50. Channel(s) : 6 channels
  51. Channel layout : C L R Ls Rs LFE
  52. Sampling rate : 48.0 kHz
  53. Frame rate : 93.750 FPS (512 SPF)
  54. Bit depth : 24 bits
  55. Compression mode : Lossy
  56. Stream size : 502 MiB (3%)
  57. Title : Castellano Surround 5.1 DTS
  58. Language : Spanish
  59. Default : Yes
  60. Forced : No
  61. Original source medium : Blu-ray
  62.  
  63. Audio #2
  64. ID : 3
  65. ID in the original source m : 4353 (0x1101)
  66. Format : DTS XLL
  67. Format/Info : Digital Theater Systems
  68. Commercial name : DTS-HD Master Audio
  69. Codec ID : A_DTS
  70. Duration : 1 h 31 min
  71. Bit rate mode : Variable
  72. Bit rate : 4 551 kb/s
  73. Channel(s) : 6 channels
  74. Channel layout : C L R Ls Rs LFE
  75. Sampling rate : 48.0 kHz
  76. Frame rate : 93.750 FPS (512 SPF)
  77. Bit depth : 24 bits
  78. Compression mode : Lossless
  79. Stream size : 2.90 GiB (15%)
  80. Title : Inglés Surround 5.1 DTS-HD M
  81. Language : English
  82. Default : No
  83. Forced : No
  84. Original source medium : Blu-ray
  85.  
  86. Audio #3
  87. ID : 4
  88. ID in the original source m : 4353 (0x1101)
  89. Format : DTS
  90. Format/Info : Digital Theater Systems
  91. Codec ID : A_DTS
  92. Duration : 1 h 31 min
  93. Bit rate mode : Constant
  94. Bit rate : 1 509 kb/s
  95. Channel(s) : 6 channels
  96. Channel layout : C L R Ls Rs LFE
  97. Sampling rate : 48.0 kHz
  98. Frame rate : 93.750 FPS (512 SPF)
  99. Bit depth : 24 bits
  100. Compression mode : Lossy
  101. Stream size : 986 MiB (5%)
  102. Title : Inglés Surround 5.1 DTS
  103. Language : English
  104. Default : No
  105. Forced : No
  106. Original source medium : Blu-ray
  107.  
  108. Text #1
  109. ID : 5
  110. ID in the original source m : 4613 (0x1205)
  111. Format : PGS
  112. Muxing mode : zlib
  113. Codec ID : S_HDMV/PGS
  114. Codec ID/Info : Picture based subtitle format used on BDs/HD-DVDs
  115. Duration : 1 h 29 min
  116. Bit rate : 20.6 kb/s
  117. Count of elements : 1262
  118. Stream size : 13.1 MiB (0%)
  119. Title : Castellano
  120. Language : Spanish
  121. Default : No
  122. Forced : No
  123. Original source medium : Blu-ray
  124.  
  125. Text #2
  126. ID : 6
  127. ID in the original source m : 4609 (0x1201)
  128. Format : PGS
  129. Muxing mode : zlib
  130. Codec ID : S_HDMV/PGS
  131. Codec ID/Info : Picture based subtitle format used on BDs/HD-DVDs
  132. Duration : 1 h 29 min
  133. Bit rate : 22.0 kb/s
  134. Count of elements : 1424
  135. Stream size : 14.1 MiB (0%)
  136. Title : Inglés
  137. Language : English
  138. Default : No
  139. Forced : No
  140. Original source medium : Blu-ray
  141.  
  142. Menu
  143. 00:00:00.000 : en:Chapter 01
  144. 00:03:47.644 : en:Chapter 02
  145. 00:05:03.928 : en:Chapter 03
  146. 00:08:32.845 : en:Chapter 04
  147. 00:11:34.443 : en:Chapter 05
  148. 00:15:59.541 : en:Chapter 06
  149. 00:21:34.543 : en:Chapter 07
  150. 00:27:39.908 : en:Chapter 08
  151. 00:29:49.496 : en:Chapter 09
  152. 00:32:52.929 : en:Chapter 10
  153. 00:39:11.766 : en:Chapter 11
  154. 00:45:15.921 : en:Chapter 12
  155. 00:51:00.348 : en:Chapter 13
  156. 00:56:11.785 : en:Chapter 14
  157. 01:03:41.943 : en:Chapter 15
  158. 01:06:50.631 : en:Chapter 16
  159. 01:11:35.791 : en:Chapter 17
  160. 01:19:41.151 : en:Chapter 18
  161. 01:21:43.148 : en:Chapter 19
  162. 01:24:42.160 : en:Chapter 20
  163.  
  164.  
Advertisement
Add Comment
Please, Sign In to add comment
Advertisement