SHARE
TWEET

Field.of.Dreams.1989.Remux.1080p.BluRay.VC-1.DTS-HD.MA.5.1-LEGi0N

a guest Jun 15th, 2019 20 Never
Not a member of Pastebin yet? Sign Up, it unlocks many cool features!
  1. General
  2. Unique ID                                : 237486183744547945536326869326958047754 (0xB2AA2CDE2DE80DA29B01FF7E124E320A)
  3. Complete name                            : Field.of.Dreams.1989.Remux.1080p.BluRay.VC-1.DTS-HD.MA.5.1-LEGi0N-Rakuvfinhel.mkv
  4. Format                                   : Matroska
  5. Format version                           : Version 4
  6. File size                                : 26.1 GiB
  7. Duration                                 : 1 h 45 min
  8. Overall bit rate mode                    : Variable
  9. Overall bit rate                         : 35.4 Mb/s
  10. Movie name                               : Field of Dreams (1989)
  11. Encoded date                             : UTC 2017-03-20 22:27:44
  12. Writing application                      : mkvmerge v9.8.0 ('Kuglblids') 64bit
  13. Writing library                          : libebml v1.3.4 + libmatroska v1.4.5
  14.  
  15. Video
  16. ID                                       : 1
  17. Format                                   : VC-1
  18. Format profile                           : Advanced@L3
  19. Codec ID                                 : V_MS/VFW/FOURCC / WVC1
  20. Codec ID/Hint                            : Microsoft
  21. Duration                                 : 1 h 45 min
  22. Bit rate                                 : 31.1 Mb/s
  23. Width                                    : 1 920 pixels
  24. Height                                   : 1 080 pixels
  25. Display aspect ratio                     : 16:9
  26. Frame rate mode                          : Constant
  27. Frame rate                               : 23.976 (24000/1001) FPS
  28. Color space                              : YUV
  29. Chroma subsampling                       : 4:2:0
  30. Bit depth                                : 8 bits
  31. Scan type                                : Progressive
  32. Compression mode                         : Lossy
  33. Bits/(Pixel*Frame)                       : 0.626
  34. Stream size                              : 22.9 GiB (88%)
  35. Title                                    : VC-1 Video / 31122 kbps / 1080p / 23.976 fps / 16:9 / Advanced Profile 3
  36. Default                                  : Yes
  37. Forced                                   : No
  38.  
  39. Audio
  40. ID                                       : 2
  41. Format                                   : DTS XLL
  42. Format/Info                              : Digital Theater Systems
  43. Commercial name                          : DTS-HD Master Audio
  44. Codec ID                                 : A_DTS
  45. Duration                                 : 1 h 45 min
  46. Bit rate mode                            : Variable
  47. Bit rate                                 : 3 818 kb/s
  48. Channel(s)                               : 6 channels
  49. Channel layout                           : C L R Ls Rs LFE
  50. Sampling rate                            : 48.0 kHz
  51. Frame rate                               : 93.750 FPS (512 SPF)
  52. Bit depth                                : 24 bits
  53. Compression mode                         : Lossless
  54. Delay relative to video                  : 42 ms
  55. Stream size                              : 2.81 GiB (11%)
  56. Title                                    : English / DTS-HD Master Audio / 5.1 / 48 kHz / 3818 kbps / 24-bit (DTS Core: 5.1 / 48 kHz / 1509 kbps / 24-bit)
  57. Language                                 : English
  58. Default                                  : Yes
  59. Forced                                   : No
  60.  
  61. Text #1
  62. ID                                       : 3
  63. Format                                   : PGS
  64. Codec ID                                 : S_HDMV/PGS
  65. Codec ID/Info                            : Picture based subtitle format used on BDs/HD-DVDs
  66. Duration                                 : 1 h 38 min
  67. Bit rate                                 : 39.2 kb/s
  68. Count of elements                        : 2730
  69. Stream size                              : 27.5 MiB (0%)
  70. Title                                    : English SDH
  71. Language                                 : English
  72. Default                                  : No
  73. Forced                                   : No
  74.  
  75. Text #2
  76. ID                                       : 4
  77. Format                                   : PGS
  78. Codec ID                                 : S_HDMV/PGS
  79. Codec ID/Info                            : Picture based subtitle format used on BDs/HD-DVDs
  80. Duration                                 : 1 h 43 min
  81. Bit rate                                 : 34.0 kb/s
  82. Count of elements                        : 2282
  83. Stream size                              : 25.3 MiB (0%)
  84. Title                                    : French
  85. Language                                 : French
  86. Default                                  : No
  87. Forced                                   : No
  88.  
  89. Text #3
  90. ID                                       : 5
  91. Format                                   : PGS
  92. Codec ID                                 : S_HDMV/PGS
  93. Codec ID/Info                            : Picture based subtitle format used on BDs/HD-DVDs
  94. Duration                                 : 1 h 43 min
  95. Bit rate                                 : 37.5 kb/s
  96. Count of elements                        : 2304
  97. Stream size                              : 27.8 MiB (0%)
  98. Title                                    : German
  99. Language                                 : German
  100. Default                                  : No
  101. Forced                                   : No
  102.  
  103. Text #4
  104. ID                                       : 6
  105. Format                                   : PGS
  106. Codec ID                                 : S_HDMV/PGS
  107. Codec ID/Info                            : Picture based subtitle format used on BDs/HD-DVDs
  108. Duration                                 : 1 h 43 min
  109. Bit rate                                 : 34.8 kb/s
  110. Count of elements                        : 2574
  111. Stream size                              : 25.9 MiB (0%)
  112. Title                                    : Russian
  113. Language                                 : Russian
  114. Default                                  : No
  115. Forced                                   : No
  116.  
  117. Text #5
  118. ID                                       : 7
  119. Format                                   : PGS
  120. Codec ID                                 : S_HDMV/PGS
  121. Codec ID/Info                            : Picture based subtitle format used on BDs/HD-DVDs
  122. Duration                                 : 1 h 43 min
  123. Bit rate                                 : 34.8 kb/s
  124. Count of elements                        : 2561
  125. Stream size                              : 25.8 MiB (0%)
  126. Title                                    : Italian
  127. Language                                 : Italian
  128. Default                                  : No
  129. Forced                                   : No
  130.  
  131. Text #6
  132. ID                                       : 8
  133. Format                                   : PGS
  134. Codec ID                                 : S_HDMV/PGS
  135. Codec ID/Info                            : Picture based subtitle format used on BDs/HD-DVDs
  136. Duration                                 : 1 h 43 min
  137. Bit rate                                 : 29.8 kb/s
  138. Count of elements                        : 2255
  139. Stream size                              : 22.1 MiB (0%)
  140. Title                                    : Czech
  141. Language                                 : Czech
  142. Default                                  : No
  143. Forced                                   : No
  144.  
  145. Text #7
  146. ID                                       : 9
  147. Format                                   : PGS
  148. Codec ID                                 : S_HDMV/PGS
  149. Codec ID/Info                            : Picture based subtitle format used on BDs/HD-DVDs
  150. Duration                                 : 1 h 43 min
  151. Bit rate                                 : 38.2 kb/s
  152. Count of elements                        : 2572
  153. Stream size                              : 28.4 MiB (0%)
  154. Title                                    : Greek
  155. Language                                 : Greek
  156. Default                                  : No
  157. Forced                                   : No
  158.  
  159. Text #8
  160. ID                                       : 10
  161. Format                                   : PGS
  162. Codec ID                                 : S_HDMV/PGS
  163. Codec ID/Info                            : Picture based subtitle format used on BDs/HD-DVDs
  164. Duration                                 : 1 h 43 min
  165. Bit rate                                 : 34.5 kb/s
  166. Count of elements                        : 2321
  167. Stream size                              : 25.6 MiB (0%)
  168. Title                                    : Hungarian
  169. Language                                 : Hungarian
  170. Default                                  : No
  171. Forced                                   : No
  172.  
  173. Text #9
  174. ID                                       : 11
  175. Format                                   : PGS
  176. Codec ID                                 : S_HDMV/PGS
  177. Codec ID/Info                            : Picture based subtitle format used on BDs/HD-DVDs
  178. Duration                                 : 1 h 43 min
  179. Bit rate                                 : 24.0 kb/s
  180. Count of elements                        : 2539
  181. Stream size                              : 17.8 MiB (0%)
  182. Title                                    : Korean
  183. Language                                 : Korean
  184. Default                                  : No
  185. Forced                                   : No
  186.  
  187. Text #10
  188. ID                                       : 12
  189. Format                                   : PGS
  190. Codec ID                                 : S_HDMV/PGS
  191. Codec ID/Info                            : Picture based subtitle format used on BDs/HD-DVDs
  192. Duration                                 : 1 h 43 min
  193. Bit rate                                 : 34.1 kb/s
  194. Count of elements                        : 2314
  195. Stream size                              : 25.4 MiB (0%)
  196. Title                                    : Polish
  197. Language                                 : Polish
  198. Default                                  : No
  199. Forced                                   : No
  200.  
  201. Text #11
  202. ID                                       : 13
  203. Format                                   : PGS
  204. Codec ID                                 : S_HDMV/PGS
  205. Codec ID/Info                            : Picture based subtitle format used on BDs/HD-DVDs
  206. Duration                                 : 1 h 43 min
  207. Bit rate                                 : 28.6 kb/s
  208. Count of elements                        : 2509
  209. Stream size                              : 21.3 MiB (0%)
  210. Title                                    : Thai
  211. Language                                 : Thai
  212. Default                                  : No
  213. Forced                                   : No
  214.  
  215. Text #12
  216. ID                                       : 14
  217. Format                                   : PGS
  218. Codec ID                                 : S_HDMV/PGS
  219. Codec ID/Info                            : Picture based subtitle format used on BDs/HD-DVDs
  220. Duration                                 : 1 h 43 min
  221. Bit rate                                 : 35.9 kb/s
  222. Count of elements                        : 2340
  223. Stream size                              : 26.7 MiB (0%)
  224. Title                                    : Turkish
  225. Language                                 : Turkish
  226. Default                                  : No
  227. Forced                                   : No
  228.  
  229. Text #13
  230. ID                                       : 15
  231. Format                                   : PGS
  232. Codec ID                                 : S_HDMV/PGS
  233. Codec ID/Info                            : Picture based subtitle format used on BDs/HD-DVDs
  234. Duration                                 : 1 h 45 min
  235. Bit rate                                 : 29.3 kb/s
  236. Count of elements                        : 2585
  237. Stream size                              : 22.0 MiB (0%)
  238. Title                                    : Chinese (Mandarin Traditional)
  239. Language                                 : Chinese
  240. Default                                  : No
  241. Forced                                   : No
  242.  
  243. Text #14
  244. ID                                       : 16
  245. Format                                   : PGS
  246. Codec ID                                 : S_HDMV/PGS
  247. Codec ID/Info                            : Picture based subtitle format used on BDs/HD-DVDs
  248. Duration                                 : 1 h 43 min
  249. Bit rate                                 : 22.8 kb/s
  250. Count of elements                        : 2242
  251. Stream size                              : 17.0 MiB (0%)
  252. Title                                    : Japanese
  253. Language                                 : Japanese
  254. Default                                  : No
  255. Forced                                   : No
  256.  
  257. Menu
  258. 00:00:00.000                             : en:My Father (Main Titles)
  259. 00:03:52.440                             : en:"If You Build It..."
  260. 00:08:57.703                             : en:The Vision
  261. 00:11:31.524                             : en:Night Talk
  262. 00:13:50.496                             : en:Building the Field
  263. 00:15:26.008                             : en:Something Totally Illogical
  264. 00:17:20.164                             : en:Shoeless Joe Jackson
  265. 00:21:39.047                             : en:The Thrill of the Grass
  266. 00:25:01.666                             : en:Rememberences
  267. 00:27:08.376                             : en:Is This Heaven?
  268. 00:29:10.081                             : en:The Baseball Men
  269. 00:33:48.109                             : en:"Ease His Pain"
  270. 00:35:36.467                             : en:The PTA Meeting
  271. 00:39:31.619                             : en:The Recluse
  272. 00:42:33.801                             : en:Boston
  273. 00:46:15.731                             : en:Terence Mann
  274. 00:52:27.519                             : en:Fenway Park
  275. 00:54:04.741                             : en:"Go the Distance"
  276. 00:58:01.603                             : en:The Search for Moonlight Graham
  277. 00:59:10.338                             : en:The Passing of a Legend
  278. 01:03:16.959                             : en:Moonlight
  279. 01:05:54.116                             : en:To Grant a Wish
  280. 01:09:38.632                             : en:Coming Home
  281. 01:11:04.385                             : en:The Hitchhiker
  282. 01:12:31.263                             : en:Penance
  283. 01:15:25.103                             : en:The Practice
  284. 01:17:49.247                             : en:Archie at the Plate
  285. 01:20:40.335                             : en:Interrupting the Game
  286. 01:22:30.028                             : en:People Will Come
  287. 01:26:26.681                             : en:Graham's Choice
  288. 01:28:09.325                             : en:Moonlight Goes Home
  289. 01:30:03.147                             : en:The Rapture of Terance Mann
  290. 01:34:18.819                             : en:"...He Will Come"
  291. 01:37:33.264                             : en:The Place Where Dreams Come True (End Titles)
RAW Paste Data
We use cookies for various purposes including analytics. By continuing to use Pastebin, you agree to our use of cookies as described in the Cookies Policy. OK, I Understand
 
Top