Guest User

[DB] Kokoro Connect E01

a guest
Nov 22nd, 2017
167
Never
Not a member of Pastebin yet? Sign Up, it unlocks many cool features!
  1. General
  2. Unique ID : 213447941998881606339213563133997232817 (0xA094940BE282026FB3CD04E05C3232B1)
  3. Complete name : [DB]Kokoro Connect_-_01_(Dual Audio_10bit_BD1080p_x265).mkv
  4. Format : Matroska
  5. Format version : Version 4 / Version 2
  6. File size : 186 MiB
  7. Duration : 24 min 52 s
  8. Overall bit rate : 1 045 kb/s
  9. Encoded date : UTC 2017-09-27 12:31:25
  10. Writing application : mkvmerge v15.0.0 ('Duel with the Devil') 64-bit
  11. Writing library : libebml v1.3.5 + libmatroska v1.4.5
  12. Attachments : Cicle Semi.ttf / akarinop.ttf / ARLRDBD.TTF / corbel.ttf / DK+Crayon+Crumble.ttf / erasdust.ttf / hitorandom.ttf / IwaOMinPro-Bd-Fate.ttf / SassyScript Regular.ttf / SqueakyChalkSound.ttf / STONESANSSTD-SEMIBOLD.OTF / STONESANSSTD-SEMIBOLDITALIC.OTF / Titles-KokoroConnect.ttf / verdana.ttf / VTKS DOWNTOWN.ttf / erasdus0.ttf / 26746.ttf / jesaya free.ttf / comic.ttf
  13.  
  14. Video
  15. ID : 1
  16. Format : HEVC
  17. Format/Info : High Efficiency Video Coding
  18. Format profile : Main 10@L4@Main
  19. Codec ID : V_MPEGH/ISO/HEVC
  20. Duration : 23 min 36 s
  21. Bit rate : 801 kb/s
  22. Width : 1 920 pixels
  23. Height : 1 080 pixels
  24. Display aspect ratio : 16:9
  25. Frame rate mode : Constant
  26. Frame rate : 23.976 (24000/1001) FPS
  27. Color space : YUV
  28. Chroma subsampling : 4:2:0
  29. Bit depth : 10 bits
  30. Bits/(Pixel*Frame) : 0.016
  31. Stream size : 135 MiB (73%)
  32. Writing library : x265 2.4+14-bc0e9bd7c08f5ddc:[Windows][GCC 6.3.0][64 bit] 10bit: KG7x [x265.ru]
  33. Encoding settings : cpuid=1173503 / frame-threads=3 / numa-pools=8 / wpp / no-pmode / no-pme / no-psnr / no-ssim / log-level=2 / input-csp=1 / input-res=1920x1080 / interlace=0 / total-frames=33951 / level-idc=0 / high-tier=1 / uhd-bd=0 / ref=3 / no-allow-non-conformance / no-repeat-headers / annexb / no-aud / no-hrd / info / hash=0 / no-temporal-layers / open-gop / min-keyint=23 / keyint=250 / bframes=4 / b-adapt=2 / b-pyramid / bframe-bias=0 / rc-lookahead=20 / lookahead-slices=6 / scenecut=40 / no-intra-refresh / ctu=64 / min-cu-size=8 / no-rect / no-amp / max-tu-size=32 / tu-inter-depth=1 / tu-intra-depth=1 / limit-tu=0 / rdoq-level=0 / dynamic-rd=0.00 / no-ssim-rd / signhide / no-tskip / nr-intra=0 / nr-inter=0 / no-constrained-intra / strong-intra-smoothing / max-merge=2 / limit-refs=3 / no-limit-modes / me=1 / subme=2 / merange=57 / temporal-mvp / weightp / no-weightb / no-analyze-src-pics / deblock=0:0 / sao / no-sao-non-deblock / rd=3 / no-early-skip / rskip / no-fast-intra / no-tskip-fast / no-cu-lossless / no-b-intra / rdpenalty=0 / psy-rd=2.00 / psy-rdoq=0.00 / no-rd-refine / analysis-mode=0 / no-lossless / cbqpoffs=0 / crqpoffs=0 / rc=crf / crf=21.0 / qcomp=0.60 / qpstep=4 / stats-write=0 / stats-read=0 / ipratio=1.40 / pbratio=1.30 / aq-mode=1 / aq-strength=1.00 / cutree / zone-count=0 / no-strict-cbr / qg-size=32 / no-rc-grain / qpmax=69 / qpmin=0 / sar=1 / overscan=0 / videoformat=5 / range=0 / colorprim=2 / transfer=2 / colormatrix=2 / chromaloc=0 / display-window=0 / max-cll=0,0 / min-luma=0 / max-luma=1023 / log2-max-poc-lsb=8 / vui-timing-info / vui-hrd-info / slices=1 / opt-qp-pps / opt-ref-list-length-pps / no-multi-pass-opt-rps / scenecut-bias=0.05 / no-opt-cu-delta-qp / no-aq-motion / no-hdr / no-hdr-opt / no-dhdr10-opt / refine-level=5 / no-limit-sao / ctu-info=0
  34. Default : Yes
  35. Forced : No
  36.  
  37. Audio #1
  38. ID : 2
  39. Format : AAC
  40. Format/Info : Advanced Audio Codec
  41. Format profile : LC
  42. Codec ID : A_AAC-2
  43. Duration : 24 min 52 s
  44. Bit rate : 130 kb/s
  45. Channel(s) : 2 channels
  46. Channel positions : Front: L R
  47. Sampling rate : 48.0 kHz
  48. Frame rate : 46.875 FPS (1024 SPF)
  49. Compression mode : Lossy
  50. Delay relative to video : 3 ms
  51. Stream size : 23.1 MiB (12%)
  52. Language : English
  53. Default : Yes
  54. Forced : No
  55.  
  56. Audio #2
  57. ID : 3
  58. Format : AAC
  59. Format/Info : Advanced Audio Codec
  60. Format profile : LC
  61. Codec ID : A_AAC-2
  62. Duration : 23 min 36 s
  63. Bit rate : 139 kb/s
  64. Channel(s) : 2 channels
  65. Channel positions : Front: L R
  66. Sampling rate : 48.0 kHz
  67. Frame rate : 46.875 FPS (1024 SPF)
  68. Compression mode : Lossy
  69. Delay relative to video : 9 ms
  70. Stream size : 23.5 MiB (13%)
  71. Language : Japanese
  72. Default : No
  73. Forced : No
  74.  
  75. Text #1
  76. ID : 4
  77. Format : ASS
  78. Codec ID : S_TEXT/ASS
  79. Codec ID/Info : Advanced Sub Station Alpha
  80. Duration : 22 min 10 s
  81. Bit rate : 464 b/s
  82. Count of elements : 446
  83. Compression mode : Lossless
  84. Stream size : 75.5 KiB (0%)
  85. Title : Signs/Songs
  86. Language : English
  87. Default : Yes
  88. Forced : Yes
  89.  
  90. Text #2
  91. ID : 5
  92. Format : ASS
  93. Codec ID : S_TEXT/ASS
  94. Codec ID/Info : Advanced Sub Station Alpha
  95. Duration : 23 min 24 s
  96. Bit rate : 557 b/s
  97. Count of elements : 797
  98. Compression mode : Lossless
  99. Stream size : 95.6 KiB (0%)
  100. Title : English
  101. Language : English
  102. Default : No
  103. Forced : No
  104.  
  105. Menu
  106. 00:00:00.000 : en:Prologue
  107. 00:02:31.026 : en:OP
  108. 00:04:00.991 : en:Part A
  109. 00:13:01.990 : en:Part B
  110. 00:21:50.059 : en:Preview
  111. 00:22:05.032 : en:ED
RAW Paste Data