Henry_Kr

SWV-S01

Sep 22nd, 2021
39
Never
Not a member of Pastebin yet? Sign Up, it unlocks many cool features!
  1. Video
  2. ID : 1
  3. Format : AVC
  4. Format/Info : Advanced Video Codec
  5. Format profile : High@L4
  6. Format settings : CABAC / 4 Ref Frames
  7. Format settings, CABAC : Yes
  8. Format settings, Reference : 4 frames
  9. Muxing mode : Header stripping
  10. Codec ID : V_MPEG4/ISO/AVC
  11. Duration : 13 min 1 s
  12. Bit rate mode : Variable
  13. Bit rate : 7 585 kb/s
  14. Maximum bit rate : 12.7 Mb/s
  15. Width : 1 920 pixels
  16. Height : 1 080 pixels
  17. Display aspect ratio : 16:9
  18. Frame rate mode : Constant
  19. Frame rate : 24.000 FPS
  20. Color space : YUV
  21. Chroma subsampling : 4:2:0
  22. Bit depth : 8 bits
  23. Scan type : Progressive
  24. Bits/(Pixel*Frame) : 0.152
  25. Stream size : 706 MiB (89%)
  26. Title : Star.Wars.Visions.S01E01.1080p.DSNP.WEB.[CartoonNOW]
  27. Language : English
  28. Default : Yes
  29. Forced : No
  30. Color range : Limited
  31. Color primaries : BT.709
  32. Transfer characteristics : BT.709
  33. Matrix coefficients : BT.709
  34.  
  35. Audio #1
  36. ID : 2
  37. Format : E-AC-3
  38. Format/Info : Enhanced AC-3
  39. Commercial name : Dolby Digital Plus
  40. Muxing mode : Header stripping
  41. Codec ID : A_EAC3
  42. Duration : 13 min 1 s
  43. Bit rate mode : Constant
  44. Bit rate : 256 kb/s
  45. Channel(s) : 6 channels
  46. Channel layout : L R C LFE Ls Rs
  47. Sampling rate : 48.0 kHz
  48. Frame rate : 31.250 FPS (1536 SPF)
  49. Compression mode : Lossy
  50. Stream size : 23.8 MiB (3%)
  51. Title : E-AC3 5.1
  52. Language : Portuguese
  53. Service kind : Complete Main
  54. Default : Yes
  55. Forced : No
  56.  
  57. Audio #2
  58. ID : 3
  59. Format : E-AC-3
  60. Format/Info : Enhanced AC-3
  61. Commercial name : Dolby Digital Plus
  62. Muxing mode : Header stripping
  63. Codec ID : A_EAC3
  64. Duration : 13 min 1 s
  65. Bit rate mode : Constant
  66. Bit rate : 256 kb/s
  67. Channel(s) : 6 channels
  68. Channel layout : L R C LFE Ls Rs
  69. Sampling rate : 48.0 kHz
  70. Frame rate : 31.250 FPS (1536 SPF)
  71. Compression mode : Lossy
  72. Stream size : 23.8 MiB (3%)
  73. Title : E-AC3 5.1
  74. Language : English
  75. Service kind : Complete Main
  76. Default : No
  77. Forced : No
  78.  
  79. Audio #3
  80. ID : 4
  81. Format : E-AC-3
  82. Format/Info : Enhanced AC-3
  83. Commercial name : Dolby Digital Plus
  84. Muxing mode : Header stripping
  85. Codec ID : A_EAC3
  86. Duration : 13 min 1 s
  87. Bit rate mode : Constant
  88. Bit rate : 256 kb/s
  89. Channel(s) : 6 channels
  90. Channel layout : L R C LFE Ls Rs
  91. Sampling rate : 48.0 kHz
  92. Frame rate : 31.250 FPS (1536 SPF)
  93. Compression mode : Lossy
  94. Stream size : 23.8 MiB (3%)
  95. Title : E-AC3 5.1
  96. Language : Japanese
  97. Service kind : Complete Main
  98. Default : No
  99. Forced : No
  100.  
  101. Text
  102. ID : 5
  103. Format : UTF-8
  104. Codec ID : S_TEXT/UTF8
  105. Codec ID/Info : UTF-8 Plain Text
  106. Title : Completa
  107. Language : Portuguese
  108. Default : No
  109. Forced : No
  110.  
  111. Menu
  112. 00:00:11.833 : en:Intro
  113. 00:00:19.375 : en:Scene 1
  114. 00:12:49.083 : en:Credits
RAW Paste Data