Guest User

E01

a guest
Dec 24th, 2017
269
Never
Not a member of Pastebin yet? Sign Up, it unlocks many cool features!
  1. General
  2. Unique ID : 236404345511690779482820448156755276616 (0xB1D9D21FF9FDFA479C31D9E5512DB348)
  3. Complete name : [DB]Daily Lives of High School Boys_-_01_(10bit_BD1080p_x265).mkv
  4. Format : Matroska
  5. Format version : Version 4 / Version 2
  6. File size : 222 MiB
  7. Duration : 24 min 20 s
  8. Overall bit rate : 1 274 kb/s
  9. Movie name : [ReinForce] Danshi Koukousei no Nichijou - 01 (BDRip 1920x1080 x264 FLAC)
  10. Encoded date : UTC 2017-08-18 08:32:06
  11. Writing application : mkvmerge v14.0.0 ('Flow') 64bit
  12. Writing library : libebml v1.3.4 + libmatroska v1.4.5
  13. Attachments : New Geneva Nine ICG.ttf / NewAsterSemi-Bold.ttf / Sketchh.ttf / TektonPro-Bold.otf / TektonPro-BoldObl.otf / calibri.ttf / constan.ttf / fansubBlock.ttf / Handana Bold.ttf / mod.ttf / MyriadProSage-Semibold.ttf / NeuzeitGroTBla.ttf / GeosansLight_0.ttf / leelawad.ttf / Light up the World.ttf / Nihilschiz Handwriting.ttf / Olivia Brush.ttf / RolandBecker Bold.ttf / SF Cartoonist Hand Bold.ttf / Soolidium.ttf / StoneHinge.ttf / TheGreatEscape.ttf / TheGreatEscapeBold.ttf / WICKCN__.TTF / AdobeHeitiStd-Regular.otf / AG Old Face Regular.ttf / Aller_Bd.ttf / Aller_BdIt.ttf / Aller_It.ttf / Aller_Lt.ttf / Aller_LtIt.ttf / Aller_Rg.ttf / AllerDisplay.ttf / ariblk.ttf / AurulentSans-Regular.otf / corbel.ttf / danielbk.ttf / DanshiNumbers.ttf / GeosansLight.ttf
  14.  
  15. Video
  16. ID : 1
  17. Format : HEVC
  18. Format/Info : High Efficiency Video Coding
  19. Format profile : Main 10@L4@Main
  20. Codec ID : V_MPEGH/ISO/HEVC
  21. Duration : 24 min 14 s
  22. Bit rate : 1 051 kb/s
  23. Width : 1 920 pixels
  24. Height : 1 080 pixels
  25. Display aspect ratio : 16:9
  26. Frame rate mode : Constant
  27. Frame rate : 23.976 (24000/1001) FPS
  28. Color space : YUV
  29. Chroma subsampling : 4:2:0
  30. Bit depth : 10 bits
  31. Bits/(Pixel*Frame) : 0.021
  32. Stream size : 182 MiB (82%)
  33. Writing library : x265 2.5+6-d11482e5fedb:[Windows][GCC 7.1.0][64 bit] 10bit
  34. Encoding settings : cpuid=1173503 / frame-threads=2 / numa-pools=4 / wpp / no-pmode / no-pme / no-psnr / no-ssim / log-level=2 / input-csp=1 / input-res=1920x1080 / interlace=0 / total-frames=34885 / level-idc=0 / high-tier=1 / uhd-bd=0 / ref=3 / no-allow-non-conformance / no-repeat-headers / annexb / no-aud / no-hrd / info / hash=0 / no-temporal-layers / open-gop / min-keyint=23 / keyint=250 / bframes=4 / b-adapt=2 / b-pyramid / bframe-bias=0 / rc-lookahead=20 / lookahead-slices=6 / scenecut=40 / no-intra-refresh / ctu=64 / min-cu-size=8 / no-rect / no-amp / max-tu-size=32 / tu-inter-depth=1 / tu-intra-depth=1 / limit-tu=0 / rdoq-level=0 / dynamic-rd=0.00 / no-ssim-rd / signhide / no-tskip / nr-intra=0 / nr-inter=0 / no-constrained-intra / strong-intra-smoothing / max-merge=2 / limit-refs=3 / no-limit-modes / me=1 / subme=2 / merange=57 / temporal-mvp / weightp / no-weightb / no-analyze-src-pics / deblock=0:0 / sao / no-sao-non-deblock / rd=3 / no-early-skip / rskip / no-fast-intra / no-tskip-fast / no-cu-lossless / no-b-intra / rdpenalty=0 / psy-rd=2.00 / psy-rdoq=0.00 / no-rd-refine / analysis-reuse-mode=0 / no-lossless / cbqpoffs=0 / crqpoffs=0 / rc=crf / crf=21.0 / qcomp=0.60 / qpstep=4 / stats-write=0 / stats-read=0 / ipratio=1.40 / pbratio=1.30 / aq-mode=1 / aq-strength=1.00 / cutree / zone-count=0 / no-strict-cbr / qg-size=32 / no-rc-grain / qpmax=69 / qpmin=0 / no-const-vbv / sar=0 / overscan=0 / videoformat=5 / range=0 / colorprim=2 / transfer=2 / colormatrix=2 / chromaloc=0 / display-window=0 / max-cll=0,0 / min-luma=0 / max-luma=1023 / log2-max-poc-lsb=8 / vui-timing-info / vui-hrd-info / slices=1 / opt-qp-pps / opt-ref-list-length-pps / no-multi-pass-opt-rps / scenecut-bias=0.05 / no-opt-cu-delta-qp / no-aq-motion / no-hdr / no-hdr-opt / no-dhdr10-opt / analysis-reuse-level=5 / scale-factor=0 / refine-intra=0 / refine-inter=0 / refine-mv=0 / no-limit-sao / ctu-info=0
  35. Default : Yes
  36. Forced : No
  37.  
  38. Audio
  39. ID : 2
  40. Format : AAC
  41. Format/Info : Advanced Audio Codec
  42. Format profile : LC
  43. Codec ID : A_AAC-2
  44. Duration : 24 min 16 s
  45. Bit rate : 137 kb/s
  46. Channel(s) : 2 channels
  47. Channel positions : Front: L R
  48. Sampling rate : 48.0 kHz
  49. Frame rate : 46.875 FPS (1024 SPF)
  50. Compression mode : Lossy
  51. Delay relative to video : 9 ms
  52. Stream size : 23.7 MiB (11%)
  53. Language : Japanese
  54. Default : Yes
  55. Forced : No
  56.  
  57. Text
  58. ID : 3
  59. Format : ASS
  60. Codec ID : S_TEXT/ASS
  61. Codec ID/Info : Advanced Sub Station Alpha
  62. Duration : 24 min 20 s
  63. Bit rate : 336 b/s
  64. Count of elements : 717
  65. Compression mode : Lossless
  66. Stream size : 59.9 KiB (0%)
  67. Language : English
  68. Default : Yes
  69. Forced : No
  70.  
  71. Menu
  72. 00:00:00.000 : en:Intro
  73. 00:01:40.934 : en:Opening
  74. 00:03:10.940 : en:High School Boys and After School
  75. 00:07:21.941 : en:High School Boys and Skirts
  76. 00:11:11.879 : en:High School Boys and Ghost Stories
  77. 00:13:56.835 : en:High School Boy and Female Companion
  78. 00:17:02.771 : en:High School Boy and Literary Girl
  79. 00:22:34.728 : en:Ending
  80. 00:23:54.724 : en:Preview
RAW Paste Data