SHARE
TWEET

The Upside WEB-DL 720p

dirtyharrys Apr 20th, 2019 86 Never
Not a member of Pastebin yet? Sign Up, it unlocks many cool features!
  1. General
  2. Unique ID                   : 197748953756558495174856788189671580084 (0x94C5102AABA6662F238593693877E1B4)
  3. Complete name               : E:\V0VCVGhlVXBzaWRl.mkv
  4. Format                      : Matroska
  5. Format version              : Version 4
  6. File size                   : 1.90 GiB
  7. Duration                    : 2 h 5 min
  8. Overall bit rate            : 2 159 kb/s
  9. Movie name                  : The Upside WEB-DL / The Upside WEB-DL
  10. Encoded date                : UTC 2019-04-20 07:40:14
  11. Writing application         : mkvmerge v30.1.0 ('Forever And More') 32-bit
  12. Writing library             : libebml v1.3.6 + libmatroska v1.4.9
  13. Copyright                   : Movies HDs 2019
  14. ARTIST                      : HarshLearner
  15.  
  16. Video
  17. ID                          : 1
  18. Format                      : AVC
  19. Format/Info                 : Advanced Video Codec
  20. Format profile              : Baseline@L3.1
  21. Format settings             : 1 Ref Frames
  22. Format settings, CABAC      : No
  23. Format settings, ReFrames   : 1 frame
  24. Codec ID                    : V_MPEG4/ISO/AVC
  25. Duration                    : 2 h 5 min
  26. Bit rate                    : 1 500 kb/s
  27. Width                       : 1 280 pixels
  28. Height                      : 720 pixels
  29. Display aspect ratio        : 16:9
  30. Frame rate mode             : Constant
  31. Frame rate                  : 24.000 FPS
  32. Color space                 : YUV
  33. Chroma subsampling          : 4:2:0
  34. Bit depth                   : 8 bits
  35. Scan type                   : Progressive
  36. Bits/(Pixel*Frame)          : 0.068
  37. Stream size                 : 1.33 GiB (70%)
  38. Title                       : The Upside
  39. Writing library             : x264 core 155 r2901 7d0ff22
  40. Default                     : Yes
  41. Forced                      : No
  42.  
  43. Audio #1
  44. ID                          : 2
  45. Format                      : AC-3
  46. Format/Info                 : Audio Coding 3
  47. Commercial name             : Dolby Digital
  48. Codec ID                    : A_AC3
  49. Duration                    : 2 h 5 min
  50. Bit rate mode               : Constant
  51. Bit rate                    : 384 kb/s
  52. Channel(s)                  : 6 channels
  53. Channel layout              : L R C LFE Ls Rs
  54. Sampling rate               : 48.0 kHz
  55. Frame rate                  : 31.250 FPS (1536 SPF)
  56. Bit depth                   : 16 bits
  57. Compression mode            : Lossy
  58. Delay relative to video     : -42 ms
  59. Stream size                 : 346 MiB (18%)
  60. Language                    : English
  61. Service kind                : Complete Main
  62. Default                     : No
  63. Forced                      : No
  64.  
  65. Audio #2
  66. ID                          : 3
  67. Format                      : AC-3
  68. Format/Info                 : Audio Coding 3
  69. Commercial name             : Dolby Digital
  70. Codec ID                    : A_AC3
  71. Duration                    : 2 h 5 min
  72. Bit rate mode               : Constant
  73. Bit rate                    : 256 kb/s
  74. Channel(s)                  : 2 channels
  75. Channel layout              : L R
  76. Sampling rate               : 48.0 kHz
  77. Frame rate                  : 31.250 FPS (1536 SPF)
  78. Bit depth                   : 16 bits
  79. Compression mode            : Lossy
  80. Delay relative to video     : -42 ms
  81. Stream size                 : 230 MiB (12%)
  82. Language                    : Spanish
  83. Service kind                : Complete Main
  84. Default                     : Yes
  85. Forced                      : Yes
  86.  
  87. Text #1
  88. ID                          : 4
  89. Format                      : UTF-8
  90. Codec ID                    : S_TEXT/UTF8
  91. Codec ID/Info               : UTF-8 Plain Text
  92. Duration                    : 2 h 2 min
  93. Bit rate                    : 60 b/s
  94. Count of elements           : 2076
  95. Stream size                 : 54.2 KiB (0%)
  96. Language                    : English
  97. Default                     : No
  98. Forced                      : No
  99.  
  100. Text #2
  101. ID                          : 5
  102. Format                      : UTF-8
  103. Codec ID                    : S_TEXT/UTF8
  104. Codec ID/Info               : UTF-8 Plain Text
  105. Duration                    : 1 h 58 min
  106. Bit rate                    : 61 b/s
  107. Count of elements           : 1808
  108. Stream size                 : 53.2 KiB (0%)
  109. Language                    : Spanish
  110. Default                     : Yes
  111. Forced                      : Yes
  112.  
  113. Text #3
  114. ID                          : 6
  115. Format                      : UTF-8
  116. Codec ID                    : S_TEXT/UTF8
  117. Codec ID/Info               : UTF-8 Plain Text
  118. Duration                    : 1 h 57 min
  119. Bit rate                    : 0 b/s
  120. Count of elements           : 11
  121. Stream size                 : 289 Bytes (0%)
  122. Language                    : Spanish
  123. Default                     : No
  124. Forced                      : Yes
  125.  
  126. Menu
  127. 00:00:00.000                : en:1
  128. 00:06:52.500                : en:2
  129. 00:15:39.916                : en:3
  130. 00:23:40.666                : en:4
  131. 00:31:22.124                : en:5
  132. 00:37:17.249                : en:6
  133. 00:44:07.082                : en:7
  134. 00:51:31.665                : en:8
  135. 01:00:19.956                : en:9
  136. 01:08:12.581                : en:10
  137. 01:14:17.331                : en:11
  138. 01:21:32.081                : en:12
  139. 01:28:42.122                : en:13
  140. 01:35:58.705                : en:14
  141. 01:42:28.080                : en:15
  142. 01:49:06.580                : en:16
RAW Paste Data
We use cookies for various purposes including analytics. By continuing to use Pastebin, you agree to our use of cookies as described in the Cookies Policy. OK, I Understand
 
Top