GrabHD

Untitled

Mar 14th, 2020
146
Never
Not a member of Pastebin yet? Sign Up, it unlocks many cool features!
  1. Общее
  2. Уникальный идентификатор : 183151028118597711006087817395683175535 (0x89C99ADD573A734D94E255686283AC6F)
  3. Полное имя : D:\Раздача\Osobennye.2019.BDRip-AVC.ExKinoRay.mkv
  4. Формат : Matroska
  5. Версия формата : Version 4 / Version 2
  6. Размер файла : 2,22 Гбайт
  7. Продолжительность : 1 ч. 53 м.
  8. Общий поток : 2800 Кбит/сек
  9. Название фильма : Hors Normes 2019 BDRip-AVC.ExKinoRay & grab777
  10. Дата кодирования : UTC 2020-03-14 12:54:13
  11. Программа кодирования : mkvmerge v7.3.0 ('Nouages') 64bit built on Oct 22 2014 18:53:34
  12. Библиотека кодирования : libebml v1.3.0 + libmatroska v1.4.1
  13.  
  14. Видео
  15. Идентификатор : 1
  16. Формат : AVC
  17. Формат/Информация : Advanced Video Codec
  18. Профиль формата : High@L4.1
  19. Настройки формата : CABAC / 12 Ref Frames
  20. Параметр CABAC формата : Да
  21. Параметр RefFrames формата : 12 кадров
  22. Идентификатор кодека : V_MPEG4/ISO/AVC
  23. Продолжительность : 1 ч. 53 м.
  24. Битрейт : 1966 Кбит/сек
  25. Ширина : 1024 пикселя
  26. Высота : 424 пикселя
  27. Соотношение сторон : 2,40:1
  28. Режим частоты кадров : Постоянный
  29. Частота кадров : 24,000 кадра/сек
  30. Цветовое пространство : YUV
  31. Субдискретизация насыщенности : 4:2:0
  32. Битовая глубина : 8 бит
  33. Тип развёртки : Прогрессивная
  34. Бит/(Пиксели*Кадры) : 0.189
  35. Размер потока : 1,56 Гбайт (70%)
  36. Заголовок : Rip by grab777
  37. Библиотека кодирования : x264 core 148 r2665M a01e339
  38. Настройки программы : cabac=1 / ref=12 / deblock=1:-2:-2 / analyse=0x3:0x133 / me=umh / subme=10 / psy=1 / psy_rd=1.00:0.15 / mixed_ref=1 / me_range=32 / chroma_me=1 / trellis=2 / 8x8dct=1 / cqm=0 / deadzone=21,11 / fast_pskip=0 / chroma_qp_offset=-3 / threads=5 / lookahead_threads=1 / sliced_threads=0 / nr=0 / decimate=1 / interlaced=0 / bluray_compat=0 / constrained_intra=0 / bframes=10 / b_pyramid=2 / b_adapt=2 / b_bias=0 / direct=3 / weightb=1 / open_gop=0 / weightp=2 / keyint=240 / keyint_min=24 / scenecut=40 / intra_refresh=0 / rc_lookahead=40 / rc=crf / mbtree=1 / crf=15.0 / qcomp=0.90 / qpmin=3 / qpmax=69 / qpstep=4 / vbv_maxrate=40000 / vbv_bufsize=30000 / crf_max=31.0 / nal_hrd=none / filler=0 / ip_ratio=1.40 / aq=1:0.00
  39. Default : Да
  40. Forced : Нет
  41.  
  42. Аудио #1
  43. Идентификатор : 2
  44. Формат : AC-3
  45. Формат/Информация : Audio Coding 3
  46. Параметр Endianness формата : Big
  47. Идентификатор кодека : A_AC3
  48. Продолжительность : 1 ч. 53 м.
  49. Вид битрейта : Постоянный
  50. Битрейт : 384 Кбит/сек
  51. Каналы : 6 каналов
  52. Расположение каналов : Front: L C R, Side: L R, LFE
  53. Частота : 48,0 КГц
  54. Частота кадров : 31,250 кадров/сек (1536 SPF)
  55. Битовая глубина : 16 бит
  56. Метод сжатия : С потерями
  57. Размер потока : 313 Мбайт (14%)
  58. Заголовок : Dub (iTunes)
  59. Язык : Russian
  60. ServiceKind/String : Complete Main
  61. Default : Да
  62. Forced : Да
  63.  
  64. Аудио #2
  65. Идентификатор : 3
  66. Формат : AC-3
  67. Формат/Информация : Audio Coding 3
  68. Параметр Endianness формата : Big
  69. Идентификатор кодека : A_AC3
  70. Продолжительность : 1 ч. 53 м.
  71. Вид битрейта : Постоянный
  72. Битрейт : 448 Кбит/сек
  73. Каналы : 6 каналов
  74. Расположение каналов : Front: L C R, Side: L R, LFE
  75. Частота : 48,0 КГц
  76. Частота кадров : 31,250 кадров/сек (1536 SPF)
  77. Битовая глубина : 16 бит
  78. Метод сжатия : С потерями
  79. Размер потока : 365 Мбайт (16%)
  80. Заголовок : Original
  81. Язык : French
  82. ServiceKind/String : Complete Main
  83. Default : Нет
  84. Forced : Нет
  85.  
  86. Меню
  87. 00:00:00.000 : :Глава 01
  88. 00:13:08.750 : :Глава 02
  89. 00:30:48.000 : :Глава 03
  90. 00:43:22.500 : :Глава 04
  91. 00:58:56.583 : :Глава 05
  92. 01:10:38.917 : :Глава 06
  93. 01:25:24.083 : :Глава 07
  94. 01:41:05.500 : :Глава 08
RAW Paste Data